Loading...
Error

Призраки Энфилда / Enfield Haunting / Сезон 1 (1-3 серии из 3) (Кристоффер Нюхольм) [2015 г., детектив, ужасы, HDTVRip] MVO

Статистика раздачи
Размер:  1,69 GB   |    Зарегистрирован:  1 год 2 месяца   |    Скачан:  2 раза

Полного источника не было: 6 месяцев

Сидов:  0  |  0 KB/s  ]   Личеров:  0  |  0 KB/s  ]

* - сиды/пиры с внешних источников

   
 
Автор Сообщение

older Пол:Муж

09-Сен-2015 11:42

Призраки Энфилда / Enfield Haunting / Сезон 1 (1-3 серии из 3)


Год выпуска: 2015
Жанр: детектив, ужасы
Страна: Великобритания
Режиссер: Кристоффер Нюхольм
В ролях: Элинор Вортингтон-Кокс, Тимоти Сполл, Ферн Дикон, Джульет Стивенсон, Рози Кавальеро, Мэттью Макфэдиен, Эллиот Керли, Струан Роджер, Чарльз Фернесс, Шон Френсис
Сюжет фильма:
Засушливый август 1977 года, Энфилд, район на севере Лондона. В одном из обычных домов, где живет обычная семья со своими обычными проблемами, начинают происходить странные события: раздаются громкие стуки и грохот, предметы перемещаются сами по себе. Очень быстро становится понятно, что под угрозой жизнь и здоровье 11-летней девочки, живущей в доме. Для расследования инцидента Общество психических исследований присылает специалиста, чья дочь трагически погибла ровно год назад...

Качество видео: HDTVRip

Продолжительность: ~ 00:45:00
Формат: AVI
Видео: XviD, 720х400, 1532 kbps
Аудио: русский, многоголосый закадровый [профессиональный], MP3 2.0, 192 kbps - ViruseProject

Код:

Общее
Полное имя                               : \The.Enfield.Haunting.S01.ViruseProject\The.Enfield.Haunting.S01E01.ViruseProject.avi
Формат                                   : AVI
Формат/Информация                        : Audio Video Interleave
Размер файла                             : 562 Мбайт
Продолжительность                        : 45 м.
Общий поток                              : 1733 Кбит/сек
Программа кодирования                    : VirtualDubMod 1.5.10.2 (build 2540/release)
Библиотека кодирования                   : VirtualDubMod build 2540/release

Видео
Идентификатор                            : 0
Формат                                   : MPEG-4 Visual
Профиль формата                          : Advanced Simple@L5
Параметр BVOP формата                    : 2
Параметр QPel формата                    : Нет
Параметр GMC формата                     : Без точки перехода
Параметр матрицы формата                 : Default (H.263)
Режим смешивания                         : Сжатый битовый поток
Идентификатор кодека                     : XVID
Идентификатор кодека/Подсказка           : XviD
Продолжительность                        : 45 м.
Битрейт                                  : 1532 Кбит/сек
Ширина                                   : 720 пикселей
Высота                                   : 400 пикселей
Соотношение сторон                       : 16:9
Частота кадров                           : 25,000 кадров/сек
Цветовое пространство                    : YUV
Субдискретизация насыщенности            : 4:2:0
Битовая глубина                          : 8 бит
Тип развёртки                            : Прогрессивная
Метод сжатия                             : С потерями
Бит/(Пиксели*Кадры)                      : 0.213
Размер потока                            : 496 Мбайт (88%)
Библиотека кодирования                   : XviD 73

Аудио
Идентификатор                            : 1
Формат                                   : MPEG Audio
Версия формата                           : Version 1
Профиль формата                          : Layer 3
Режим                                    : Joint stereo
Расширение режима                        : MS Stereo
Идентификатор кодека                     : 55
Идентификатор кодека/Подсказка           : MP3
Продолжительность                        : 45 м.
Вид битрейта                             : Постоянный
Битрейт                                  : 192 Кбит/сек
Каналы                                   : 2 канала
Частота                                  : 48,0 КГц
Метод сжатия                             : С потерями
Размер потока                            : 62,2 Мбайт (11%)
Выравнивание                             : Соединение по промежуткам
Продолжительность промежутка             : 40  мс. (1,00 видеокадр)
Время предзагрузки промежутка            : 504  мс.

Релиз группы:

picpicpicpicpic
Для увеличения картинки щелкните мышкой по превью

Этот торрент недоступен для скачивания без регистрации, однако доступен по публичной magnet-ссылке (источники с публичных трекеров). Перед использованием ссылки прочтите, пожалуйста Пользовательское соглашение, а также как можно дольше оставайтесь на раздаче! Для того, чтобы скачать сам торрент-файл (который видит больше источников), а также для того, чтобы поблагодарить релизера, вам необходимо зарегистрироваться. Если регистрироваться лень - вы можете также попробовать скачать релиз по нашим партнерским ссылкам ниже.

[underverse.su].t58010.torrent
Трекер: Зарегистрирован   [ 09.09.2015 11:42 ]  

Статус: проверено (by makkol at 09.09.2015 13:09)
Поблагодарили: пока никто не поблагодарил...
Тип торрента: публичный - доступные источники с открытых трекеров: 
Размер: 1,69 GB (занимает 0,39 DVDR, для записи нужно 1 болванка DVDR/RW)
 
 
Похожие темы
Форум Тема Автор Торрент Отв. Посл. сооб.
Зарубежное кино [DVDRip, Low-Res HDRip, и т.д.] Призраки Элли Роуз / The Haunting of Ellie Rose / Not Alone (Тристан Верслуис) [2015 г., ужасы, DVDRip] DVO makkol
0 | 0

0 | 1268

15

07.03.2016 22:53


Яндекс.Метрика powered by Sphinx


В Н И М А Н И Е
Сайт не распространяет и не хранит электронные версии произведений, а лишь бесплатно и без коммерческой выгоды (не требуя взамен платы,
SMS и т.д.) предоставляет доступ к создаваемому пользователями каталогу ссылок на торрент-файлы, которые содержат только списки хеш-сумм.
Убедительная просьба с жалобами обращаться напрямую к пользователю, разместившему торрент файл.

Вверх