Loading...
Error

Последователи / The Following / Сезоны 1-3 (1-45 серии из 45) (Маркос Сига, Николь Кэссел, Джошуа Батлер) [2013-2015 г., триллер, драма, криминал, детектив, WEB-DLRip] MVO (LostFilm)

Статистика раздачи
Размер:  21,32 GB   |    Зарегистрирован:  1 год 2 месяца   |    Скачан:  2 раза

Полного источника не было: 2 месяца 21 день

Сидов:  0  |  0 KB/s  ]   Личеров:  0  |  0 KB/s  ]

* - сиды/пиры с внешних источников

   
 
Автор Сообщение

older Пол:Муж

09-Сен-2015 11:04

Последователи / The Following / Сезоны 1-3 (1-45 серии из 45)


Год выпуска: 2013-2015
Жанр: триллер, драма, криминал, детектив
Страна: США
Режиссер: Маркос Сига, Николь Кэссел, Джошуа Батлер
В ролях: Кевин Бэйкон, Шон Эшмор, Джеймс Пьюрфой, Натали Зиа, Энни Парисс, Нико Торторелла, Вэлори Керри, Адан Канто, Кайл Кэтлетт, Чинаса Огбуагу, Ли Джан Ли, Том Липински, Билли Браун, Стив Монро, Майкл Дрэйер, Джон Лафайетт, Кристофер Денхам, Дженнифер Феррин, Майк Колтер, Джессика Строуп
Сюжет фильма:
Главный антигерой - Джо Кэрол, бывший профессор колледжа, который преподавал работы Эдгара По и параллельно убивал молодых женщин во славу романтизма, пока не был пойман. С того момента он провел множество часов за компьютером в тюремной библиотеке, создавая социальную сеть из убийц-подражателей, которые исполняют любую его команду. Сериал начинается с того момента, когда Кэрол спасается от смертной казни с помощью своих последователей, и ФБР, в свою очередь, приглашает Райана Харди, который схватил Джо в первый раз, для консультирования в деле его поимки.

Качество видео: WEB-DLRip

Продолжительность: ~ 00:45:00
Формат: AVI
Видео: XviD, 720х400, 1349 kbps
Аудио: русский, многоголосый закадровый [профессиональный], MP3 2.0, 192 kbps
Season 1
01 (01) Пилот / Pilot
02 (02) Глава вторая / Chapter Two
03 (03) Поэтическое Пламя / The Poet's Fire
04 (04) Безумная любовь / Mad Love
05 (05) Осада / The Siege
06 (06) Провал / The fall
07 (07) Отпусти меня / Let me go
08 (08) Добро пожаловать домой / Welcome Home
09 (09) Сердечные раны / Love Hurts
10 (10) Вина / Guilt
11 (11) Плети и сожаление / Whips & Regret
12 (12) Проклятие / The Curse
13 (13) Хэйвепорт / Havenport
14 (14) Конец близок / The End Is Near
15 (15) Последняя глава / The Final Chapter
Season 2
01 (16) Воскрешение / Resurrection
02 (17) Для Джо / For Joe
03 (18) Верь мне / Trust Me
04 (19) Семейное дело / Family Affair
05 (20) Отражения / Reflection
06 (21) Улетай / Fly Away
07 (22) Жертва / Sacrifice
08 (23) Предвестник / The Messenger
09 (24) Без масок / Unmasked
10 (25) Любимчик учителя / Teacher's Pet
11 (26) Свобода / Freedom
12 (27) Предательство / Betrayal
13 (28) Жатва / The Reaping
14 (29) Молчание / Silence
15 (30) Прости / Forgive
Season 3
01 (31) Новая кровь /New Blood
02 (32) В ящик /Boxed In
03 (33) На виду /Exposed
04 (34) Дом /Home
05 (35) Свидетель обвинения /A Hostile Witness
06 (36) Воссоединение /Reunion
07 (37) Охота /The Hunt
08 (38) Плоть и кровь /Flesh & Blood
09 (39) Убить гонца /Kill the Messenger
10 (40) Навеки /Evermore
11 (41) Демоны /Demons
12 (42) На грани /The Edge
13 (43) Простой обмен /A Simple Trade
14 (44) Живым или мёртвым /Dead or Alive
15 (45) Расплата /The Reckoning

Код:

Общее
Полное имя                               : \The Following\The.Following.S01.rus.LostFilm.TV\The.Following.S01E01.rus.LostFilm.TV.avi
Формат                                   : AVI
Формат/Информация                        : Audio Video Interleave
Размер файла                             : 507 Мбайт
Продолжительность                        : 45 м.
Режим общего битрейта                    : Переменный
Общий поток                              : 1547 Кбит/сек
Программа кодирования                    : Nandub v1.0rc2
Библиотека кодирования                   : Nandub build 1853/release

Видео
Идентификатор                            : 0
Формат                                   : MPEG-4 Visual
Профиль формата                          : Simple@L3
Параметр BVOP формата                    : Нет
Параметр QPel формата                    : Нет
Параметр GMC формата                     : Без точки перехода
Параметр матрицы формата                 : Default (H.263)
Идентификатор кодека                     : XVID
Идентификатор кодека/Подсказка           : XviD
Продолжительность                        : 45 м.
Битрейт                                  : 1349 Кбит/сек
Ширина                                   : 720 пикселей
Высота                                   : 400 пикселей
Соотношение сторон                       : 16:9
Частота кадров                           : 23,976 кадра/сек
Цветовое пространство                    : YUV
Субдискретизация насыщенности            : 4:2:0
Битовая глубина                          : 8 бит
Тип развёртки                            : Прогрессивная
Метод сжатия                             : С потерями
Бит/(Пиксели*Кадры)                      : 0.195
Размер потока                            : 442 Мбайт (87%)
Библиотека кодирования                   : XviD 1.2.1 (UTC 2008-12-04)

Аудио
Идентификатор                            : 1
Формат                                   : MPEG Audio
Версия формата                           : Version 1
Профиль формата                          : Layer 3
Режим                                    : Joint stereo
Расширение режима                        : MS Stereo
Идентификатор кодека                     : 55
Идентификатор кодека/Подсказка           : MP3
Продолжительность                        : 45 м.
Вид битрейта                             : Переменный
Битрейт                                  : 192 Кбит/сек
Каналы                                   : 2 канала
Частота                                  : 48,0 КГц
Метод сжатия                             : С потерями
Размер потока                            : 60,6 Мбайт (12%)
Выравнивание                             : Соединение по промежуткам
Продолжительность промежутка             : 24  мс. (0,58 видеокадр)
Время предзагрузки промежутка            : 500  мс.
Библиотека кодирования                   : LAME3.97b
Настройки программы                      : -m j -V 4 -q 3 -lowpass 18.6 --abr 192

Код:

Общее
Полное имя                               :\The Following\The.Following.S02.rus.LostFilm.TV\The.Following.S02E01.rus.LostFilm.TV.avi
Формат                                   : AVI
Формат/Информация                        : Audio Video Interleave
Размер файла                             : 481 Мбайт
Продолжительность                        : 44 м.
Режим общего битрейта                    : Переменный
Общий поток                              : 1528 Кбит/сек
Программа кодирования                    : Nandub v1.0rc2
Библиотека кодирования                   : Nandub build 1853/release

Видео
Идентификатор                            : 0
Формат                                   : MPEG-4 Visual
Профиль формата                          : Simple@L3
Параметр BVOP формата                    : Нет
Параметр QPel формата                    : Нет
Параметр GMC формата                     : Без точки перехода
Параметр матрицы формата                 : Default (H.263)
Идентификатор кодека                     : XVID
Идентификатор кодека/Подсказка           : XviD
Продолжительность                        : 44 м.
Битрейт                                  : 1329 Кбит/сек
Ширина                                   : 720 пикселей
Высота                                   : 400 пикселей
Соотношение сторон                       : 16:9
Частота кадров                           : 23,976 кадра/сек
Цветовое пространство                    : YUV
Субдискретизация насыщенности            : 4:2:0
Битовая глубина                          : 8 бит
Тип развёртки                            : Прогрессивная
Метод сжатия                             : С потерями
Бит/(Пиксели*Кадры)                      : 0.192
Размер потока                            : 419 Мбайт (87%)
Библиотека кодирования                   : XviD 1.2.1 (UTC 2008-12-04)

Аудио
Идентификатор                            : 1
Формат                                   : MPEG Audio
Версия формата                           : Version 1
Профиль формата                          : Layer 3
Режим                                    : Joint stereo
Расширение режима                        : MS Stereo
Идентификатор кодека                     : 55
Идентификатор кодека/Подсказка           : MP3
Продолжительность                        : 44 м.
Вид битрейта                             : Переменный
Битрейт                                  : 192 Кбит/сек
Каналы                                   : 2 канала
Частота                                  : 48,0 КГц
Метод сжатия                             : С потерями
Размер потока                            : 58,7 Мбайт (12%)
Выравнивание                             : Соединение по промежуткам
Продолжительность промежутка             : 24  мс. (0,58 видеокадр)
Время предзагрузки промежутка            : 499  мс.
Библиотека кодирования                   : LAME3.97b
Настройки программы                      : -m j -V 4 -q 3 -lowpass 18.6 --abr 192

Код:

Общее
Полное имя                               : \The Following\The.Following.S03.rus.LostFilm.TV\The.Following.S03E01.rus.LostFilm.TV.avi
Формат                                   : AVI
Формат/Информация                        : Audio Video Interleave
Размер файла                             : 494 Мбайт
Продолжительность                        : 44 м.
Режим общего битрейта                    : Переменный
Общий поток                              : 1566 Кбит/сек
Программа кодирования                    : Nandub v1.0rc2
Библиотека кодирования                   : Nandub build 1853/release

Видео
Идентификатор                            : 0
Формат                                   : MPEG-4 Visual
Профиль формата                          : Advanced Simple@L5
Параметр BVOP формата                    : Нет
Параметр QPel формата                    : Нет
Параметр GMC формата                     : Без точки перехода
Параметр матрицы формата                 : Default (H.263)
Идентификатор кодека                     : XVID
Идентификатор кодека/Подсказка           : XviD
Продолжительность                        : 44 м.
Битрейт                                  : 1366 Кбит/сек
Ширина                                   : 720 пикселей
Высота                                   : 400 пикселей
Соотношение сторон                       : 16:9
Частота кадров                           : 23,976 кадра/сек
Цветовое пространство                    : YUV
Субдискретизация насыщенности            : 4:2:0
Битовая глубина                          : 8 бит
Тип развёртки                            : Прогрессивная
Метод сжатия                             : С потерями
Бит/(Пиксели*Кадры)                      : 0.198
Размер потока                            : 431 Мбайт (87%)
Библиотека кодирования                   : XviD 1.2.1 (UTC 2008-12-04)

Аудио
Идентификатор                            : 1
Формат                                   : MPEG Audio
Версия формата                           : Version 1
Профиль формата                          : Layer 3
Режим                                    : Joint stereo
Расширение режима                        : MS Stereo
Идентификатор кодека                     : 55
Идентификатор кодека/Подсказка           : MP3
Продолжительность                        : 44 м.
Вид битрейта                             : Переменный
Битрейт                                  : 192 Кбит/сек
Каналы                                   : 2 канала
Частота                                  : 48,0 КГц
Метод сжатия                             : С потерями
Размер потока                            : 59,2 Мбайт (12%)
Выравнивание                             : Соединение по промежуткам
Продолжительность промежутка             : 24  мс. (0,58 видеокадр)
Время предзагрузки промежутка            : 470  мс.
Библиотека кодирования                   : LAME3.97b
Настройки программы                      : -m j -V 4 -q 3 -lowpass 18.6 --abr 192

Релиз группы:

picpicpicpicpic
Для увеличения картинки щелкните мышкой по превью

Этот торрент недоступен для скачивания без регистрации, однако доступен по публичной magnet-ссылке (источники с публичных трекеров). Перед использованием ссылки прочтите, пожалуйста Пользовательское соглашение, а также как можно дольше оставайтесь на раздаче! Для того, чтобы скачать сам торрент-файл (который видит больше источников), а также для того, чтобы поблагодарить релизера, вам необходимо зарегистрироваться. Если регистрироваться лень - вы можете также попробовать скачать релиз по нашим партнерским ссылкам ниже.

[underverse.su].t58009.torrent
Трекер: Зарегистрирован   [ 09.09.2015 11:04 ]  

Статус: проверено (by makkol at 09.09.2015 13:08)
Поблагодарили: пока никто не поблагодарил...
Тип торрента: публичный - доступные источники с открытых трекеров: 
Размер: 21,32 GB (занимает 4,87 DVDR, для записи нужно 5 болванок DVDR/RW)
 
 
Похожие темы
Форум Тема Автор Торрент Отв. Посл. сооб.
Зарубежные сериалы Последователи / The Following / Сезон 1 / Серии 1-15 (15) (Маркос Сига) [2013 г., триллер, драма, криминал, WEBDLRip] MVO + Original Чертёнок
3 | 2

0 | 452

13

02.05.2013 18:16

Зарубежные сериалы [BD / Remux / BDRip / WEB-DL / HDTV 1080/720р] Последователи / The Following / Сезон: 1 / Серии: 1-15 (15) (Маркос Сига, Джошуа Батлер) [2013 г., Триллер, драма, криминал, WEBDL 720р] MVO yuriy1920
2 | 0

0 | 3934

3

23.01.2013 10:59


Яндекс.Метрика powered by Sphinx


В Н И М А Н И Е
Сайт не распространяет и не хранит электронные версии произведений, а лишь бесплатно и без коммерческой выгоды (не требуя взамен платы,
SMS и т.д.) предоставляет доступ к создаваемому пользователями каталогу ссылок на торрент-файлы, которые содержат только списки хеш-сумм.
Убедительная просьба с жалобами обращаться напрямую к пользователю, разместившему торрент файл.

Вверх