Loading...
Error

Древние / Первородные / The Originals / Сезон 1 (1-22 серии из 22) (Крис Грисмер, Джесси Уарн, Мэттью Хатингс) [2013 г., ужасы, фэнтези, драма, детектив, WEB-DLRip] MVO (LostFilm)

Статистика раздачи
Размер:  8,14 GB   |    Зарегистрирован:  1 год 2 месяца   |    Скачан:  5 раз

Полного источника не было: 2 месяца 13 дней

Сидов:  0  |  0 KB/s  ]   Личеров:  0  |  0 KB/s  ]

* - сиды/пиры с внешних источников

   
 
Автор Сообщение

older Пол:Муж

09-Сен-2015 09:03

Древние / Первородные / The Originals / Сезон 1 (1-22 серии из 22)


Год выпуска: 2013
Жанр: ужасы, фэнтези, драма, детектив
Страна: США
Режиссер: Крис Грисмер, Джесси Уарн, Мэттью Хатингс
В ролях: Джозеф Морган, Дэниэл Гиллис, Чарльз Майкл Дэвис, Клер Холт, Фиби Тонкин, Даниэль Кэмпбелл, Каллард Харрис, Александра Фикен, Эка Дарвилл, Даниэлла Пинеда, Леа Пайпс
Сюжет фильма:
Ребекка, Клаус и Элайджа в 20х годах активно участвовали в жизни города Новый Орлеан. Они тайно управляли его жителями, сделав его очень удобным для жизни сверхъестественных существ. Здесь, в городе клубов и алкоголя их существование превратилось в сплошное веселье. Однако, внезапное появление Майкла лишило их стабильности. Теперь, спустя годы, Древние вампиры вновь возвращаются в город, где держится уникальный баланс сил между вампирами, ведьмами и оборотнями, однако видимое спокойствие таит многие интриги.

Качество видео: WEB-DLRip

Продолжительность: ~ 00:42:00
Формат: AVI
Видео: XviD, 720х400, 787 kbps
Аудио: русский, многоголосый закадровый [профессиональный], MP3 2.0, 192 kbps
01. Always and Forever / Всегда и навечно
02. House of the Rising Son / Дом мятежного сына
03. Tangled Up in Blue / Заплутав в печали
04. Girl in New Orleans / Девушка в Новом Орлеане
05. Sinners and Saints / Святые и грешники
06. Fruit of the Poisoned Tree / Плод ядовитого дерева
07. Bloodletting / Кровопролитие
08. The River in Reverse / Повернуть время вспять
09. Reigning Pain in New Orleans / Бремя власти в Новом Орлеане
10. The Casket Girls / Девушки с характером
11. Apres Moi, Le Deluge / После нас хоть потоп
12. Dance Back from the Grave / Танец восставших из мертвых
13. Crescent City / Город полумесяца
14. Long Way Back from Hell / Долгая дорога из ада
15. Le Grand Guignol / Гран-Гиньоль
16. Farewell to Storyville / Прощание с городом
17. Moon Over Bourbon Street / Луна над Бурбон Стрит
18. The Big Uneasy / Большой переполох
19. An Unblinking Death / Спокойная смерть
20. A Closer Walk with Thee / Идти с тобой рядом
21. The Battle of New Orleans / Битва за Новый Орлеан
22. From a Cradle to a Grave / Из колыбели в могилу

Код:

Общее
Полное имя                               : \The.Originals.S01.rus.LostFilm.TV\The.Originals.S01E01.rus.LostFilm.TV.avi
Формат                                   : AVI
Формат/Информация                        : Audio Video Interleave
Размер файла                             : 302 Мбайт
Продолжительность                        : 42 м.
Режим общего битрейта                    : Переменный
Общий поток                              : 988 Кбит/сек
Программа кодирования                    : Nandub v1.0rc2
Библиотека кодирования                   : Nandub build 1853/release

Видео
Идентификатор                            : 0
Формат                                   : MPEG-4 Visual
Профиль формата                          : Simple@L3
Параметр BVOP формата                    : Нет
Параметр QPel формата                    : Нет
Параметр GMC формата                     : Без точки перехода
Параметр матрицы формата                 : Default (H.263)
Идентификатор кодека                     : XVID
Идентификатор кодека/Подсказка           : XviD
Продолжительность                        : 42 м.
Битрейт                                  : 787 Кбит/сек
Ширина                                   : 720 пикселей
Высота                                   : 400 пикселей
Соотношение сторон                       : 16:9
Частота кадров                           : 23,976 кадра/сек
Цветовое пространство                    : YUV
Субдискретизация насыщенности            : 4:2:0
Битовая глубина                          : 8 бит
Тип развёртки                            : Прогрессивная
Метод сжатия                             : С потерями
Бит/(Пиксели*Кадры)                      : 0.114
Размер потока                            : 240 Мбайт (80%)
Библиотека кодирования                   : XviD 1.2.1 (UTC 2008-12-04)

Аудио
Идентификатор                            : 1
Формат                                   : MPEG Audio
Версия формата                           : Version 1
Профиль формата                          : Layer 3
Режим                                    : Joint stereo
Расширение режима                        : MS Stereo
Идентификатор кодека                     : 55
Идентификатор кодека/Подсказка           : MP3
Продолжительность                        : 42 м.
Вид битрейта                             : Переменный
Битрейт                                  : 192 Кбит/сек
Каналы                                   : 2 канала
Частота                                  : 48,0 КГц
Метод сжатия                             : С потерями
Размер потока                            : 57,6 Мбайт (19%)
Выравнивание                             : Соединение по промежуткам
Продолжительность промежутка             : 24  мс. (0,58 видеокадр)
Время предзагрузки промежутка            : 488  мс.
Библиотека кодирования                   : LAME3.97b
Настройки программы                      : -m j -V 4 -q 3 -lowpass 18.6 --abr 192

Релиз группы:

pic pic pic pic pic
Для увеличения картинки щелкните мышкой по превью

Этот торрент недоступен для скачивания без регистрации, однако доступен по публичной magnet-ссылке (источники с публичных трекеров). Перед использованием ссылки прочтите, пожалуйста Пользовательское соглашение, а также как можно дольше оставайтесь на раздаче! Для того, чтобы скачать сам торрент-файл (который видит больше источников), а также для того, чтобы поблагодарить релизера, вам необходимо зарегистрироваться. Если регистрироваться лень - вы можете также попробовать скачать релиз по нашим партнерским ссылкам ниже.

[underverse.su].t58006.torrent
Трекер: Зарегистрирован   [ 09.09.2015 09:03 ]  

Статус: проверено (by makkol at 09.09.2015 13:04)
Поблагодарили: пока никто не поблагодарил...
Тип торрента: публичный - доступные источники с открытых трекеров: 
Размер: 8,14 GB (занимает 1,86 DVDR, для записи нужно 2 болванки DVDR/RW)
 
 
Похожие темы
Форум Тема Автор Торрент Отв. Посл. сооб.
T Зарубежные сериалы Древние / Первородные / The Originals [сезон 1 / серии 01-20 (24)] (Крис Грисмер, Брэд Тёрнер) [2013 г., ужасы, фэнтези, драма, WEB-DLRip] MVO (Baibako) + Original (Eng) 90ytr90
1 | 0

0 | 6917

5

30.10.2013 17:19

Зарубежные сериалы Древние / Первородные / The Originals / Сезон 2 (1-22 серии из 22) (Крис Грисмер, Джесси Уарн, Мэттью Хатингс) [2014 г., ужасы, фэнтези, драма, детектив, WEB-DLRip] MVO (LostFilm) older
10 | 5

0 | 335

3

09.09.2015 09:17


Яндекс.Метрика powered by Sphinx


В Н И М А Н И Е
Сайт не распространяет и не хранит электронные версии произведений, а лишь бесплатно и без коммерческой выгоды (не требуя взамен платы,
SMS и т.д.) предоставляет доступ к создаваемому пользователями каталогу ссылок на торрент-файлы, которые содержат только списки хеш-сумм.
Убедительная просьба с жалобами обращаться напрямую к пользователю, разместившему торрент файл.

Вверх