Loading...
Error

Черный список / The Blacklist / Сезоны 1-2 (44 серии из 44) (Майкл В. Уоткинс, Стивен А. Эделсон, Карен Гавиола) [2013-2014 г., триллер, драма, мелодрама, криминал, детектив, HDRip, WEB-DLRip] Dub (ТВ3) + Original

Статистика раздачи
Размер:  23,72 GB   |    Зарегистрирован:  1 год 2 месяца   |    Скачан:  6 раз

Полного источника не было: 9 дней

Сидов:  0  |  0 KB/s  ]   Личеров:  0  |  0 KB/s  ]

* - сиды/пиры с внешних источников

   
 
Автор Сообщение

older Пол:Муж

09-Сен-2015 05:51

Черный список / The Blacklist / Сезоны 1-2 (44 серии из 44)


Год выпуска: 2013-2014
Жанр: триллер, драма, мелодрама, криминал, детектив
Страна: США
Режиссер: Майкл В. Уоткинс, Стивен А. Эделсон, Карен Гавиола
В ролях: Джеймс Спэйдер, Меган Бун, Диего Клаттенхофф, Гарри Дж. Ленникс, Райан Игголд, Ильфенеш Хадера, Джессика Ши Элверсон, Чарльз Бэйкер, Дельфина Белль, Ник Блеймаер, Парминдер К. Награ
Сюжет фильма:
Один из самых разыскиваемых беглецов ФБР в исполнении Джеймса Спейдера («Секс, ложь и видео», «Практика») неожиданно добровольно сдаётся властям. Самодовольный преступник-хитрец начинает играть с ФБР в каверзную многоходовую игру: он обещает помочь федералам поймать опаснейших преступников Америки при условии, что с ним будет работать неопытная сотрудница Лиз Кин. ФБР в лице Гарри Ленникса соглашается на странную сделку не без непредсказуемых последствий.

Качество видео: HDRip, WEB-DLRip

Продолжительность: 44 x ~ 00:45:00
Формат: AVI
Видео: XviD, 720х400, 1330 kbps
Аудио #1: русский, дублированный, AC3 2.0, 192 kbps - ТВ3
Аудио #2: английский, оригинал, AC3 2.0, 192 kbps

Код:

Общее
Полное имя                               : \Черный список. Сезон 1-2\S1\1x01 - Pilot (Пилот).avi
Формат                                   : AVI
Формат/Информация                        : Audio Video Interleave
Размер файла                             : 559 Мбайт
Продолжительность                        : 45 м.
Общий поток                              : 1729 Кбит/сек
Название фильма                          : Черный список. Сезон 1 / The Blacklist. Season 1 (2013)
Программа кодирования                    : VirtualDubMod 1.5.10.2 (build 2540/release)
Библиотека кодирования                   : VirtualDubMod build 2540/release
Правообладатель                          : miha2154

Видео
Идентификатор                            : 0
Формат                                   : MPEG-4 Visual
Профиль формата                          : Advanced Simple@L5
Параметр BVOP формата                    : 1
Параметр QPel формата                    : Нет
Параметр GMC формата                     : Без точки перехода
Параметр матрицы формата                 : Выборочная
Идентификатор кодека                     : XVID
Идентификатор кодека/Подсказка           : XviD
Продолжительность                        : 45 м.
Битрейт                                  : 1330 Кбит/сек
Ширина                                   : 720 пикселей
Высота                                   : 400 пикселей
Соотношение сторон                       : 16:9
Частота кадров                           : 23,976 кадра/сек
Цветовое пространство                    : YUV
Субдискретизация насыщенности            : 4:2:0
Битовая глубина                          : 8 бит
Тип развёртки                            : Прогрессивная
Метод сжатия                             : С потерями
Бит/(Пиксели*Кадры)                      : 0.193
Размер потока                            : 430 Мбайт (77%)
Библиотека кодирования                   : XviD 65

Аудио #1
Идентификатор                            : 1
Формат                                   : AC-3
Формат/Информация                        : Audio Coding 3
Расширение режима                        : CM (complete main)
Параметр Endianness формата              : Big
Идентификатор кодека                     : 2000
Продолжительность                        : 45 м.
Вид битрейта                             : Постоянный
Битрейт                                  : 192 Кбит/сек
Каналы                                   : 2 канала
Расположение каналов                     : Front: L R
Частота                                  : 48,0 КГц
Битовая глубина                          : 16 бит
Метод сжатия                             : С потерями
Размер потока                            : 62,1 Мбайт (11%)
Выравнивание                             : Разделение по промежуткам
Продолжительность промежутка             : 42  мс. (1,00 видеокадр)
Время предзагрузки промежутка            : 500  мс.
Заголовок                                : Профессиональный (полное дублирование) ТВ3

Аудио #2
Идентификатор                            : 2
Формат                                   : AC-3
Формат/Информация                        : Audio Coding 3
Расширение режима                        : CM (complete main)
Параметр Endianness формата              : Big
Идентификатор кодека                     : 2000
Продолжительность                        : 45 м.
Вид битрейта                             : Постоянный
Битрейт                                  : 192 Кбит/сек
Каналы                                   : 2 канала
Расположение каналов                     : Front: L R
Частота                                  : 48,0 КГц
Битовая глубина                          : 16 бит
Метод сжатия                             : С потерями
Размер потока                            : 62,1 Мбайт (11%)
Выравнивание                             : Разделение по промежуткам
Продолжительность промежутка             : 42  мс. (1,00 видеокадр)
Время предзагрузки промежутка            : 500  мс.
Заголовок                                : Английский

Код:

Общее
Полное имя                               : \Черный список. Сезон 1-2\S2\2x01 - Lord Baltimore (Лорд Балтимор).avi
Формат                                   : AVI
Формат/Информация                        : Audio Video Interleave
Размер файла                             : 552 Мбайт
Продолжительность                        : 42 м.
Общий поток                              : 1798 Кбит/сек
Название фильма                          : Черный список. Сезон 2 / The Blacklist. Season 2 (2014)
Программа кодирования                    : VirtualDubMod 1.5.10.2 (build 2540/release)
Библиотека кодирования                   : VirtualDubMod build 2540/release
Правообладатель                          : miha2154

Видео
Идентификатор                            : 0
Формат                                   : MPEG-4 Visual
Профиль формата                          : Advanced Simple@L5
Параметр BVOP формата                    : 1
Параметр QPel формата                    : Нет
Параметр GMC формата                     : Без точки перехода
Параметр матрицы формата                 : Выборочная
Идентификатор кодека                     : XVID
Идентификатор кодека/Подсказка           : XviD
Продолжительность                        : 42 м.
Битрейт                                  : 1400 Кбит/сек
Ширина                                   : 720 пикселей
Высота                                   : 400 пикселей
Соотношение сторон                       : 16:9
Частота кадров                           : 23,976 кадра/сек
Цветовое пространство                    : YUV
Субдискретизация насыщенности            : 4:2:0
Битовая глубина                          : 8 бит
Тип развёртки                            : Прогрессивная
Метод сжатия                             : С потерями
Бит/(Пиксели*Кадры)                      : 0.203
Размер потока                            : 430 Мбайт (78%)
Библиотека кодирования                   : XviD 65

Аудио #1
Идентификатор                            : 1
Формат                                   : AC-3
Формат/Информация                        : Audio Coding 3
Расширение режима                        : CM (complete main)
Параметр Endianness формата              : Big
Идентификатор кодека                     : 2000
Продолжительность                        : 42 м.
Вид битрейта                             : Постоянный
Битрейт                                  : 192 Кбит/сек
Каналы                                   : 2 канала
Расположение каналов                     : Front: L R
Частота                                  : 48,0 КГц
Битовая глубина                          : 16 бит
Метод сжатия                             : С потерями
Размер потока                            : 58,9 Мбайт (11%)
Выравнивание                             : Разделение по промежуткам
Продолжительность промежутка             : 42  мс. (1,00 видеокадр)
Время предзагрузки промежутка            : 500  мс.
Заголовок                                : Профессиональный (полное дублирование) ТВ3

Аудио #2
Идентификатор                            : 2
Формат                                   : AC-3
Формат/Информация                        : Audio Coding 3
Расширение режима                        : CM (complete main)
Параметр Endianness формата              : Big
Идентификатор кодека                     : 2000
Продолжительность                        : 42 м.
Вид битрейта                             : Постоянный
Битрейт                                  : 192 Кбит/сек
Каналы                                   : 2 канала
Расположение каналов                     : Front: L R
Частота                                  : 48,0 КГц
Битовая глубина                          : 16 бит
Метод сжатия                             : С потерями
Размер потока                            : 58,9 Мбайт (11%)
Выравнивание                             : Разделение по промежуткам
Продолжительность промежутка             : 42  мс. (1,00 видеокадр)
Время предзагрузки промежутка            : 500  мс.
Заголовок                                : Английский

Релиз группы:

picpicpicpicpic
Для увеличения картинки щелкните мышкой по превью

Этот торрент недоступен для скачивания без регистрации, однако доступен по публичной magnet-ссылке (источники с публичных трекеров). Перед использованием ссылки прочтите, пожалуйста Пользовательское соглашение, а также как можно дольше оставайтесь на раздаче! Для того, чтобы скачать сам торрент-файл (который видит больше источников), а также для того, чтобы поблагодарить релизера, вам необходимо зарегистрироваться. Если регистрироваться лень - вы можете также попробовать скачать релиз по нашим партнерским ссылкам ниже.

[underverse.su].t58000.torrent
Трекер: Зарегистрирован   [ 09.09.2015 05:51 ]  

Статус: проверено (by makkol at 09.09.2015 12:34)
Поблагодарили: 1 человек
Тип торрента: публичный - доступные источники с открытых трекеров: 
Размер: 23,72 GB (занимает 5,42 DVDR, для записи нужно 6 болванок DVDR/RW)
 
 
Похожие темы
Форум Тема Автор Торрент Отв. Посл. сооб.
T Зарубежное кино [DVDRip, Low-Res HDRip, и т.д.] Чёрный список / The Blacklist (2 сезона) (Майкл В. Уоткинс, Джо Карнахан, Джейс Александр) [2013 г., боевик, триллер, криминал, детектив, WEB-DLRip] MVO UseR
0 | 0

0 | 1874

12

17.01.2014 16:28

T Зарубежные сериалы [BD / Remux / BDRip / WEB-DL / HDTV 1080/720р] Черный список / The Blacklist / Сезон 3 (1-7 серий из 22) (Джо Карнахан) [2014-2015 г., драма, криминал, WEB-DL 720p] DVO (To4ka) + Original ultarasbarcelona
4 | 0

0 | 1108

3

24.11.2015 11:10


Яндекс.Метрика powered by Sphinx


В Н И М А Н И Е
Сайт не распространяет и не хранит электронные версии произведений, а лишь бесплатно и без коммерческой выгоды (не требуя взамен платы,
SMS и т.д.) предоставляет доступ к создаваемому пользователями каталогу ссылок на торрент-файлы, которые содержат только списки хеш-сумм.
Убедительная просьба с жалобами обращаться напрямую к пользователю, разместившему торрент файл.

Вверх