Loading...
Error

Нереально / UnREAL / Сезон 1 (1-10 серии из 10) (Питер О’Фаллон, Ута Бризвитц, Лев Л. Спиро) [2015 г., драма, HDTVRip] MVO + Original

Статистика раздачи
Размер:  5,47 GB   |    Зарегистрирован:  2 года   |    Скачан:  3 раза

Полного источника не было: 1 год

Сидов:  0  |  0 KB/s  ]   Личеров:  0  |  0 KB/s  ]

* - сиды/пиры с внешних источников

   
 
Автор Сообщение

older Пол:Муж

08-Сен-2015 19:32

Нереально / UnREAL / Сезон 1 (1-10 серии из 10)


Год выпуска: 2015
Жанр: драма
Страна: США
Режиссер: Питер О’Фаллон, Ута Бризвитц, Лев Л. Спиро
В ролях: Шири Эпплби, Констанс Зиммер, Джоанна Э. Брэдди, Женевьев Бюкнер, Бреннан Эллиотт, Бонита Фридериси, Натали Келли, Джош Келли, Фредди Строма, Джеффри Бауэр-Чепман
Сюжет фильма:
Настоящий хаос окружает съемки любовных реалити-шоу. За кулисами может оказаться всё гораздо интереснее, чем в эфире. В погоне за рейтингами приходится всячески манипулировать конкурсантами, чтобы те выдали необходимый «материал» для шоу. А продюсер может уволить кого угодно за малейший недочёт.

Качество видео: HDTVRip

Продолжительность: ~ 00:43:00
Формат: AVI
Видео: XviD, 720х400, 1497 kbps
Аудио #1: русский, многоголосый закадровый [профессиональный], AC3 2.0, 192 kbps - Gears Media
Аудио #2: английский, оригинал, AC3 2.0, 192 kbps

Код:

Общее
Полное имя                               : \UnREAL S01 (2015)  HDTVRip (Gears Media)\UnREAL S01E01 (2015) HDTVRip (Gears Media).avi
Формат                                   : AVI
Формат/Информация                        : Audio Video Interleave
Размер файла                             : 591 Мбайт
Продолжительность                        : 43 м.
Общий поток                              : 1895 Кбит/сек
Программа кодирования                    : VirtualDubMod 1.5.10.3 (build 2550/release)
Библиотека кодирования                   : VirtualDubMod build 2550/release

Видео
Идентификатор                            : 0
Формат                                   : MPEG-4 Visual
Профиль формата                          : Advanced Simple@L5
Параметр BVOP формата                    : 1
Параметр QPel формата                    : Нет
Параметр GMC формата                     : Без точки перехода
Параметр матрицы формата                 : Default (H.263)
Идентификатор кодека                     : XVID
Идентификатор кодека/Подсказка           : XviD
Продолжительность                        : 43 м.
Битрейт                                  : 1497 Кбит/сек
Ширина                                   : 720 пикселей
Высота                                   : 400 пикселей
Соотношение сторон                       : 16:9
Частота кадров                           : 23,976 кадра/сек
Цветовое пространство                    : YUV
Субдискретизация насыщенности            : 4:2:0
Битовая глубина                          : 8 бит
Тип развёртки                            : Прогрессивная
Метод сжатия                             : С потерями
Бит/(Пиксели*Кадры)                      : 0.217
Размер потока                            : 467 Мбайт (79%)
Библиотека кодирования                   : XviD 1.2.1 (UTC 2008-12-04)

Аудио #1
Идентификатор                            : 1
Формат                                   : AC-3
Формат/Информация                        : Audio Coding 3
Расширение режима                        : CM (complete main)
Параметр Endianness формата              : Big
Идентификатор кодека                     : 2000
Продолжительность                        : 43 м.
Вид битрейта                             : Постоянный
Битрейт                                  : 192 Кбит/сек
Каналы                                   : 2 канала
Расположение каналов                     : Front: L R
Частота                                  : 48,0 КГц
Битовая глубина                          : 16 бит
Метод сжатия                             : С потерями
Размер потока                            : 59,9 Мбайт (10%)
Выравнивание                             : Разделение по промежуткам
Продолжительность промежутка             : 42  мс. (1,00 видеокадр)
Время предзагрузки промежутка            : 500  мс.

Аудио #2
Идентификатор                            : 2
Формат                                   : AC-3
Формат/Информация                        : Audio Coding 3
Расширение режима                        : CM (complete main)
Параметр Endianness формата              : Big
Идентификатор кодека                     : 2000
Продолжительность                        : 43 м.
Вид битрейта                             : Постоянный
Битрейт                                  : 192 Кбит/сек
Каналы                                   : 2 канала
Расположение каналов                     : Front: L R
Частота                                  : 48,0 КГц
Битовая глубина                          : 16 бит
Метод сжатия                             : С потерями
Размер потока                            : 59,8 Мбайт (10%)
Выравнивание                             : Разделение по промежуткам
Продолжительность промежутка             : 42  мс. (1,00 видеокадр)
Время предзагрузки промежутка            : 500  мс.

Релиз группы:

picpicpicpicpic
Для увеличения картинки щелкните мышкой по превью

Этот торрент недоступен для скачивания без регистрации, однако доступен по публичной magnet-ссылке (источники с публичных трекеров). Перед использованием ссылки прочтите, пожалуйста Пользовательское соглашение, а также как можно дольше оставайтесь на раздаче! Для того, чтобы скачать сам торрент-файл (который видит больше источников), а также для того, чтобы поблагодарить релизера, вам необходимо зарегистрироваться. Если регистрироваться лень - вы можете также попробовать скачать релиз по нашим партнерским ссылкам ниже.

[underverse.su].t57992.torrent
Трекер: Зарегистрирован   [ 08.09.2015 19:32 ]  

Статус: проверено (by makkol at 08.09.2015 21:49)
Поблагодарили: пока никто не поблагодарил...
Тип торрента: публичный - доступные источники с открытых трекеров: 
Размер: 5,47 GB (занимает 1,25 DVDR, для записи нужно 2 болванки DVDR/RW)
 
 

Яндекс.Метрика powered by Sphinx


В Н И М А Н И Е
Сайт не распространяет и не хранит электронные версии произведений, а лишь бесплатно и без коммерческой выгоды (не требуя взамен платы,
SMS и т.д.) предоставляет доступ к создаваемому пользователями каталогу ссылок на торрент-файлы, которые содержат только списки хеш-сумм.
Убедительная просьба с жалобами обращаться напрямую к пользователю, разместившему торрент файл.

Вверх