Loading...
Error

Столпы Земли / The Pillars of the Earth / Сезон 1 (1-8 серии из 8) (Серджо Мимика-Геззан) [2010 г., триллер, драма, мелодрама, история, HDRip] MVO + Original

Статистика раздачи
Размер:  4 GB   |    Зарегистрирован:  1 год 3 месяца   |    Скачан:  6 раз

Полного источника не было: 19 часов

Сидов:  0  |  0 KB/s  ]   Личеров:  0  |  0 KB/s  ]

* - сиды/пиры с внешних источников

   
 
Автор Сообщение

older Пол:Муж

08-Сен-2015 17:58

Столпы Земли / The Pillars of the Earth / Сезон 1 (1-8 серии)


Год выпуска: 2010
Жанр: триллер, драма, мелодрама, история
Страна: Германия , Канада , Великобритания
Режиссер: Серджо Мимика-Геззан
В ролях: Йен МакШейн, Дональд Сазерленд, Руфус Сьюэлл, Мэттью Макфейден, Элисон Пилл, Сара Пэриш, Хейли Атвел, Дэвид Оукс, Наталия Уорнер, Сэм Клэфин, Дэвид Барк-Джоунс и др.
Сюжет фильма:
Время действия — Англия, XII век. Тяжелое, смутное время, жестокие нравы… Граница между добром и злом настолько условна, что легко сделать неверный шаг, принимая решения в масштабах целого государства. Вечная борьба за престол, постоянные войны, предательство церкви… Великолепная экранизация одноименного романа Кена Фоллета никого не оставит равнодушным!

Качество видео: HDRip

Продолжительность: ~ 00:54:00
Формат: AVI
Видео: DivX, 624x352, 1035 kbps
Аудио #1: русский, многоголосый закадровый [профессиональный], MP3 2.0, 128 kbps
Аудио #2: английский, оригинал, MP3 2.0, 128 kbps
1. Anarchy / Анархия
2. Master Builder / Мастер-каменщик
3. Redemption / Искупление
4. Battlefield / Поле битвы
5. Legacy / Наследство
6. Witchcraft / Колдовство
7. New Beginnings / Новые начинания
8. The Work of Angels / Дело ангелов

Код:

Общее
Полное имя                               : \the.pillars.of.the.earth.s01.hdrip.rus.eng.novafilm\the.pillars.of.the.earth.s01e01e02.hdrip.rus.eng.*другой трекер*.avi
Формат                                   : AVI
Формат/Информация                        : Audio Video Interleave
Размер файла                             : 1,00 Гбайт
Продолжительность                        : 1 ч. 49 м.
Общий поток                              : 1305 Кбит/сек
Программа кодирования                    : VirtualDubMod 1.5.10.2 (build 2542/release)
Библиотека кодирования                   : VirtualDubMod build 2542/release

Видео
Идентификатор                            : 0
Формат                                   : MPEG-4 Visual
Параметр BVOP формата                    : 1
Параметр QPel формата                    : Нет
Параметр GMC формата                     : Без точки перехода
Параметр матрицы формата                 : Default (H.263)
Режим смешивания                         : Сжатый битовый поток
Идентификатор кодека                     : DX50
Идентификатор кодека/Подсказка           : DivX 5
Продолжительность                        : 1 ч. 49 м.
Битрейт                                  : 1035 Кбит/сек
Ширина                                   : 624 пикселя
Высота                                   : 352 пикселя
Соотношение сторон                       : 16:9
Частота кадров                           : 23,976 кадра/сек
Цветовое пространство                    : YUV
Субдискретизация насыщенности            : 4:2:0
Битовая глубина                          : 8 бит
Тип развёртки                            : Прогрессивная
Метод сжатия                             : С потерями
Бит/(Пиксели*Кадры)                      : 0.196
Размер потока                            : 813 Мбайт (79%)
Библиотека кодирования                   : DivX 6.8.5 (UTC 2009-08-20)

Аудио #1
Идентификатор                            : 1
Формат                                   : MPEG Audio
Версия формата                           : Version 1
Профиль формата                          : Layer 3
Режим                                    : Joint stereo
Расширение режима                        : MS Stereo
Идентификатор кодека                     : 55
Идентификатор кодека/Подсказка           : MP3
Продолжительность                        : 1 ч. 49 м.
Вид битрейта                             : Постоянный
Битрейт                                  : 128 Кбит/сек
Каналы                                   : 2 канала
Частота                                  : 48,0 КГц
Метод сжатия                             : С потерями
Размер потока                            : 101 Мбайт (10%)
Выравнивание                             : Соединение по промежуткам
Продолжительность промежутка             : 42  мс. (1,00 видеокадр)
Время предзагрузки промежутка            : 504  мс.

Аудио #2
Идентификатор                            : 2
Формат                                   : MPEG Audio
Версия формата                           : Version 1
Профиль формата                          : Layer 3
Режим                                    : Joint stereo
Расширение режима                        : MS Stereo
Идентификатор кодека                     : 55
Идентификатор кодека/Подсказка           : MP3
Продолжительность                        : 1 ч. 49 м.
Вид битрейта                             : Постоянный
Битрейт                                  : 128 Кбит/сек
Каналы                                   : 2 канала
Частота                                  : 48,0 КГц
Метод сжатия                             : С потерями
Размер потока                            : 101 Мбайт (10%)
Выравнивание                             : Соединение по промежуткам
Продолжительность промежутка             : 42  мс. (1,00 видеокадр)
Время предзагрузки промежутка            : 504  мс.

Релиз группы:

picpicpicpicpic
Для увеличения картинки щелкните мышкой по превью

Этот торрент недоступен для скачивания без регистрации, однако доступен по публичной magnet-ссылке (источники с публичных трекеров). Перед использованием ссылки прочтите, пожалуйста Пользовательское соглашение, а также как можно дольше оставайтесь на раздаче! Для того, чтобы скачать сам торрент-файл (который видит больше источников), а также для того, чтобы поблагодарить релизера, вам необходимо зарегистрироваться. Если регистрироваться лень - вы можете также попробовать скачать релиз по нашим партнерским ссылкам ниже.

[underverse.su].t57990.torrent
Трекер: Зарегистрирован   [ 08.09.2015 17:58 ]  

Статус: проверено (by makkol at 08.09.2015 21:44)
Поблагодарили: 1 человек
Тип торрента: публичный - доступные источники с открытых трекеров: 
Размер: 4 GB (занимает 0,91 DVDR, для записи нужно 1 болванка DVDR/RW)
 
 

Яндекс.Метрика powered by Sphinx


В Н И М А Н И Е
Сайт не распространяет и не хранит электронные версии произведений, а лишь бесплатно и без коммерческой выгоды (не требуя взамен платы,
SMS и т.д.) предоставляет доступ к создаваемому пользователями каталогу ссылок на торрент-файлы, которые содержат только списки хеш-сумм.
Убедительная просьба с жалобами обращаться напрямую к пользователю, разместившему торрент файл.

Вверх