Loading...
Error

Восстание Техаса / Texas Rising / Сезон 1 (1-5 серии из 5) (Роланд Жоффе) [2015 г., драма, вестерн, WEB-DLRip] MVO + Original

Статистика раздачи
Размер:  6,7 GB   |    Зарегистрирован:  1 год 3 месяца   |    Скачан:  8 раз

Полного источника не было: 1 день 13 часов

Сидов:  0  |  0 KB/s  ]   Личеров:  0  |  0 KB/s  ]

* - сиды/пиры с внешних источников

   
 
Автор Сообщение

older Пол:Муж

08-Сен-2015 17:26

Восстание Техаса / Texas Rising / Сезон 1 (1-5 серии из 5)


Год выпуска: 2015
Жанр: драма, вестерн
Страна: США
Режиссер: Роланд Жоффе
В ролях: Тревор Донован, Билл Пэкстон, Стивен Монро Тейлор, Синтия Аддай-Робинсон, Роберт Бэйкер, Джеффри Блейк, Джон Блох, Джейк Бьюзи
Сюжет фильма:
Речь в сериале пойдет о знаменитой Техасской революции 1835 года, когда штат решил выйти из состава Мексики в результате чего случилась недолгая война за независимость. На фоне этих событий, зрители также узнают историю появления знаменитых техасских рейнджеров.

Качество видео: WEB-DLRip

Продолжительность: ~ 01:32:00
Формат: AVI
Видео: XviD, 720x304, 1800 kbps
Аудио #1: русский, многоголосый закадровый [профессиональный], AC3 2.0, 192 kbps
Аудио #2: английский, оригинал, AC3 2.0, 192 kbps
Субтитры: тип: внешние, английский, формат: SRT

Код:

Общее
Полное имя                               : \Texas Rising (S01) LostFilm\Texas.Rising.S01E01.XviD.LostFilm.[qqss44].avi
Формат                                   : AVI
Формат/Информация                        : Audio Video Interleave
Размер файла                             : 1,41 Гбайт
Продолжительность                        : 1 ч. 32 м.
Общий поток                              : 2198 Кбит/сек
Программа кодирования                    : VirtualDubMod 1.5.10.3 | www.virtualdub-fr.org || (build 2550/release)
Библиотека кодирования                   : VirtualDubMod build 2550/release

Видео
Идентификатор                            : 0
Формат                                   : MPEG-4 Visual
Профиль формата                          : Advanced Simple@L5
Параметр BVOP формата                    : 2
Параметр QPel формата                    : Нет
Параметр GMC формата                     : Без точки перехода
Параметр матрицы формата                 : Default (MPEG)
Идентификатор кодека                     : XVID
Идентификатор кодека/Подсказка           : XviD
Продолжительность                        : 1 ч. 32 м.
Битрейт                                  : 1800 Кбит/сек
Ширина                                   : 720 пикселей
Высота                                   : 304 пикселя
Соотношение сторон                       : 2,35:1
Частота кадров                           : 23,976 кадра/сек
Цветовое пространство                    : YUV
Субдискретизация насыщенности            : 4:2:0
Битовая глубина                          : 8 бит
Тип развёртки                            : Прогрессивная
Метод сжатия                             : С потерями
Бит/(Пиксели*Кадры)                      : 0.343
Размер потока                            : 1,16 Гбайт (82%)
Библиотека кодирования                   : XviD 73

Аудио #1
Идентификатор                            : 1
Формат                                   : AC-3
Формат/Информация                        : Audio Coding 3
Расширение режима                        : CM (complete main)
Параметр Endianness формата              : Big
Идентификатор кодека                     : 2000
Продолжительность                        : 1 ч. 32 м.
Вид битрейта                             : Постоянный
Битрейт                                  : 192 Кбит/сек
Каналы                                   : 2 канала
Расположение каналов                     : Front: L R
Частота                                  : 48,0 КГц
Битовая глубина                          : 16 бит
Метод сжатия                             : С потерями
Размер потока                            : 127 Мбайт (9%)
Выравнивание                             : Разделение по промежуткам
Продолжительность промежутка             : 42  мс. (1,00 видеокадр)
Время предзагрузки промежутка            : 500  мс.

Аудио #2
Идентификатор                            : 2
Формат                                   : AC-3
Формат/Информация                        : Audio Coding 3
Расширение режима                        : CM (complete main)
Параметр Endianness формата              : Big
Идентификатор кодека                     : 2000
Продолжительность                        : 1 ч. 32 м.
Вид битрейта                             : Постоянный
Битрейт                                  : 192 Кбит/сек
Каналы                                   : 2 канала
Расположение каналов                     : Front: L R
Частота                                  : 48,0 КГц
Битовая глубина                          : 16 бит
Метод сжатия                             : С потерями
Размер потока                            : 127 Мбайт (9%)
Выравнивание                             : Разделение по промежуткам
Продолжительность промежутка             : 42  мс. (1,00 видеокадр)
Время предзагрузки промежутка            : 500  мс.

Релиз: рип, синхронизация звука - qqss44
Озвучка: LostFilm


Релиз группы:

picpicpicpicpic
Для увеличения картинки щелкните мышкой по превью

Этот торрент недоступен для скачивания без регистрации, однако доступен по публичной magnet-ссылке (источники с публичных трекеров). Перед использованием ссылки прочтите, пожалуйста Пользовательское соглашение, а также как можно дольше оставайтесь на раздаче! Для того, чтобы скачать сам торрент-файл (который видит больше источников), а также для того, чтобы поблагодарить релизера, вам необходимо зарегистрироваться. Если регистрироваться лень - вы можете также попробовать скачать релиз по нашим партнерским ссылкам ниже.

[underverse.su].t57989.torrent
Трекер: Зарегистрирован   [ 08.09.2015 17:26 ]  

Статус: проверено (by makkol at 08.09.2015 21:41)
Поблагодарили: 1 человек
Тип торрента: публичный - доступные источники с открытых трекеров: 
Размер: 6,7 GB (занимает 1,53 DVDR, для записи нужно 2 болванки DVDR/RW)
 
 
Похожие темы
Форум Тема Автор Торрент Отв. Посл. сооб.
Зарубежное кино [DVDRip, Low-Res HDRip, и т.д.] Восстание проклятых / Rise of the Damned (Майкл Бафаро) [2011 г., Ужас, DVDRip] WeaSel
0 | 0

0 | 596

9

03.11.2011 07:31

Зарубежное кино [DVDRip, Low-Res HDRip, и т.д.] Восстание планеты обезьян / Rise of the Planet of the Apes (Руперт Уайатт) [2011 г., фантастика, боевик, триллер, драма, HDRip] maddd
0 | 0

0 | 746

0

04.12.2011 15:20

Зарубежное кино [DVDRip, Low-Res HDRip, и т.д.] Восстание зомби / Rise of the Zombies (Ник Лион) [2012 г., ужасы, боевик, триллер, HDTVRip] MVO [ViruseProject] RG NewCinema
0 | 0

0 | 1159

49

22.11.2012 20:31

Зарубежное кино [DVDRip, Low-Res HDRip, и т.д.] Восстание андроидов / Android Insurrection (Эндрю Беллвар) [2012 г., фантастика, боевик, DVDRip] MVO RG NewCinema
2 | 0

0 | 1435

72

19.12.2012 05:53

Зарубежное кино [DVDRip, Low-Res HDRip, и т.д.] Восстание планеты обезьян / Rise of the Planet of the Apes (Руперт Уайатт) [2011 г., фантастика, боевик, триллер, драма, HDRip-AVC] Dub + Original 90ytr90
238 | 35

0 | 394

3

25.12.2012 09:13

Зарубежное кино [DVDRip, Low-Res HDRip, и т.д.] Восстание планеты обезьян / Rise of the Planet of the Apes (Руперт Уайатт) [2011 г., фантастика, боевик, триллер, драма, HDRip] Dub 90ytr90
116 | 4

0 | 684

37

25.12.2012 09:22

Зарубежное кино [DVDRip, Low-Res HDRip, и т.д.] Восстание мертвецов / Dead Rising / Zombrex: Dead Rising Sun (Кэйдзи Инафунэ) [2010 г., ужасы, зомби, DVDRip] VO (den904) Чертёнок
0 | 0

0 | 1145

12

07.02.2013 11:59

Зарубежное кино [DVDRip, Low-Res HDRip, и т.д.] Восстание животных / Rise of the Animals (Крис Войцик) [2011 г., ужасы, комедия, DVDRip] VO [den904] RG NewCinema
0 | 0

0 | 1126

13

08.04.2013 14:14

Зарубежное кино [DVDRip, Low-Res HDRip, и т.д.] Восстание зомби / Rise of the Zombie (Люк Кенни, Деваки Синх) [2013 г., ужасы, триллер, DVDRip] VO [den904] + Original Паукан
0 | 0

0 | 818

15

28.08.2013 06:35

Зарубежное кино [DVDRip, Low-Res HDRip, и т.д.] Восстание / Uprising (Джон Эвнет) [2001 г., драма, исторический, военный, DVDRip] VO Паукан
1 | 0

0 | 2029

7

21.11.2013 14:36


Яндекс.Метрика powered by Sphinx


В Н И М А Н И Е
Сайт не распространяет и не хранит электронные версии произведений, а лишь бесплатно и без коммерческой выгоды (не требуя взамен платы,
SMS и т.д.) предоставляет доступ к создаваемому пользователями каталогу ссылок на торрент-файлы, которые содержат только списки хеш-сумм.
Убедительная просьба с жалобами обращаться напрямую к пользователю, разместившему торрент файл.

Вверх