Loading...
Error

Власть в ночном городе / Power / Сезон 2 (1-10 серии из 10) (Джон Дэвид Коулз, Энтони Хемингуэй, Кари Скогланд) [2015 г., драма, криминал, HDTVRip] MVO + Original

Статистика раздачи
Размер:  7,34 GB   |    Зарегистрирован:  1 год 2 месяца   |    Скачан:  1 раз

Полного источника не было: 2 месяца 19 дней

Сидов:  0  |  0 KB/s  ]   Личеров:  0  |  0 KB/s  ]

* - сиды/пиры с внешних источников

   
 
Автор Сообщение

older Пол:Муж

08-Сен-2015 16:50

Власть в ночном городе / Power / Сезон 2 (1-10 серии из 10)


Год выпуска: 2015
Жанр: драма, криминал
Страна: США
Режиссер: Джон Дэвид Коулз, Энтони Хемингуэй, Кари Скогланд
В ролях: Луис Рамос, Адам Хасс, Люси Уолтерс, Винисиус Мачадо, Лесли Лопез, Кэтрин Нардуччи, Шэйн Джонсон, Дж.Р. Рамирез, Омари Хардвик, Лела Лорен
Сюжет фильма:
Заработав немало денег на нелегальной торговле наркотиками, хозяин ночного клуба планирует легализировать свой капитал. Он хочет занять достойное место в высших слоях нью-йоркской элиты, куда закрыт доступ всякого рода драгдилерам. Безусловно, деньги и власть в ночном городе неразделимые понятия, но нужна ещё определенная респектабельность и репутация, позволяющие вполне официально управлять городом и влиять на ход событий.

Качество видео: HDTVRip

Продолжительность: ~ 00:57:00
Формат: AVI
Видео: XviD, 720х400, 1446 kbps
Аудио #1: русский, многоголосый закадровый [профессиональный], AC3 2.0, 192 kbps - Amedia
Аудио #2: английский, оригинал, AC3 2.0, 192 kbps
Субтитры #1: тип: внешние, русский, формат: SRT
Субтитры #2: тип: внешние, английский, формат: SRT

Код:

Общее
Полное имя                               : \Power (S02)\Power.S02E01.XviD.Amedia.[qqss44].avi
Формат                                   : AVI
Формат/Информация                        : Audio Video Interleave
Размер файла                             : 759 Мбайт
Продолжительность                        : 57 м.
Общий поток                              : 1844 Кбит/сек
Программа кодирования                    : VirtualDubMod 1.5.10.3 | www.virtualdub-fr.org || (build 2550/release)
Библиотека кодирования                   : VirtualDubMod build 2550/release

Видео
Идентификатор                            : 0
Формат                                   : MPEG-4 Visual
Профиль формата                          : Advanced Simple@L5
Параметр BVOP формата                    : 2
Параметр QPel формата                    : Нет
Параметр GMC формата                     : Без точки перехода
Параметр матрицы формата                 : Default (MPEG)
Идентификатор кодека                     : XVID
Идентификатор кодека/Подсказка           : XviD
Продолжительность                        : 57 м.
Битрейт                                  : 1446 Кбит/сек
Ширина                                   : 720 пикселей
Высота                                   : 400 пикселей
Соотношение сторон                       : 16:9
Частота кадров                           : 23,976 кадра/сек
Цветовое пространство                    : YUV
Субдискретизация насыщенности            : 4:2:0
Битовая глубина                          : 8 бит
Тип развёртки                            : Прогрессивная
Метод сжатия                             : С потерями
Бит/(Пиксели*Кадры)                      : 0.209
Размер потока                            : 595 Мбайт (78%)
Библиотека кодирования                   : XviD 73

Аудио #1
Идентификатор                            : 1
Формат                                   : AC-3
Формат/Информация                        : Audio Coding 3
Расширение режима                        : CM (complete main)
Параметр Endianness формата              : Big
Идентификатор кодека                     : 2000
Продолжительность                        : 57 м.
Вид битрейта                             : Постоянный
Битрейт                                  : 192 Кбит/сек
Каналы                                   : 2 канала
Расположение каналов                     : Front: L R
Частота                                  : 48,0 КГц
Битовая глубина                          : 16 бит
Метод сжатия                             : С потерями
Задержка видео                           : 17 мс.
Размер потока                            : 79,0 Мбайт (10%)
Выравнивание                             : Разделение по промежуткам
Продолжительность промежутка             : 42  мс. (1,00 видеокадр)
Время предзагрузки промежутка            : 500  мс.

Аудио #2
Идентификатор                            : 2
Формат                                   : AC-3
Формат/Информация                        : Audio Coding 3
Расширение режима                        : CM (complete main)
Параметр Endianness формата              : Big
Идентификатор кодека                     : 2000
Продолжительность                        : 57 м.
Вид битрейта                             : Постоянный
Битрейт                                  : 192 Кбит/сек
Каналы                                   : 2 канала
Расположение каналов                     : Front: L R
Частота                                  : 48,0 КГц
Битовая глубина                          : 16 бит
Метод сжатия                             : С потерями
Задержка видео                           : 17 мс.
Размер потока                            : 79,0 Мбайт (10%)
Выравнивание                             : Разделение по промежуткам
Продолжительность промежутка             : 42  мс. (1,00 видеокадр)
Время предзагрузки промежутка            : 500  мс.

Релиз: рип, синхронизация звука и субтитров - qqss44
Субтитры: от Амедиа


Релиз группы:

picpicpicpicpic
Для увеличения картинки щелкните мышкой по превью

Этот торрент недоступен для скачивания без регистрации, однако доступен по публичной magnet-ссылке (источники с публичных трекеров). Перед использованием ссылки прочтите, пожалуйста Пользовательское соглашение, а также как можно дольше оставайтесь на раздаче! Для того, чтобы скачать сам торрент-файл (который видит больше источников), а также для того, чтобы поблагодарить релизера, вам необходимо зарегистрироваться. Если регистрироваться лень - вы можете также попробовать скачать релиз по нашим партнерским ссылкам ниже.

[underverse.su].t57985.torrent
Трекер: Зарегистрирован   [ 08.09.2015 16:50 ]  

Статус: проверено (by makkol at 08.09.2015 21:39)
Поблагодарили: пока никто не поблагодарил...
Тип торрента: публичный - доступные источники с открытых трекеров: 
Размер: 7,34 GB (занимает 1,68 DVDR, для записи нужно 2 болванки DVDR/RW)
 
 
Похожие темы
Форум Тема Автор Торрент Отв. Посл. сооб.
Зарубежные сериалы Власть в ночном городе / Power / Сезон 1 (1-8 серии из 8) (Джон Дэвид Коулз, Энтони Хемингуэй, Кари Скогланд) [2014 г., драма, криминал, WEB-DLRip] MVO + Original older
12 | 2

0 | 321

3

11.08.2015 06:37


Яндекс.Метрика powered by Sphinx


В Н И М А Н И Е
Сайт не распространяет и не хранит электронные версии произведений, а лишь бесплатно и без коммерческой выгоды (не требуя взамен платы,
SMS и т.д.) предоставляет доступ к создаваемому пользователями каталогу ссылок на торрент-файлы, которые содержат только списки хеш-сумм.
Убедительная просьба с жалобами обращаться напрямую к пользователю, разместившему торрент файл.

Вверх