Loading...
Error

Тёмное Дитя / Orphan Black / Сезон 3 (1-10 серии из 10) (Джон Фоусет, Дэвид Фрэйзи, Т.Дж. Скотт) [2015 г., фантастика, боевик, драма, WEB-DLRip] MVO + Original

Статистика раздачи
Размер:  4,4 GB   |    Зарегистрирован:  1 год 2 месяца   |    Скачан:  3 раза

Полного источника не было: 1 месяц 17 дней

Сидов:  0  |  0 KB/s  ]   Личеров:  0  |  0 KB/s  ]

* - сиды/пиры с внешних источников

   
 
Автор Сообщение

older Пол:Муж

08-Сен-2015 15:42

Тёмное Дитя / Orphan Black / Сезон 3 (1-10 серии из 10)


Год выпуска: 2015
Жанр: фантастика, боевик, драма
Страна: Канада
Режиссер: Джон Фоусет, Дэвид Фрэйзи, Т.Дж. Скотт
В ролях: Татьяна Маслани, Джордан Джаварис, Дилан Брюс, Скайлер Уэкслер, Мария Дойл Кеннеди, Кевин Ханчард, Инга Кадранел, Рон Лиа, Майкл Мэндо, Дрю Дэвис и др.
Сюжет фильма:
Сара — сирота, которой выпало перенести немало лишений в жизни. Лишенная родительской любви и заботы, Сара чувствует себя отрешенной от этого мира, в котором, как ей кажется, она никому не нужна. Нет ни единого человека, который бы заботился о ней. Но вот и без того нерадостная жизнь девушки однажды омрачается одним трагическим происшествием. Сара невольно становится свидетельницей того, как молодая женщина накладывает на себя руки. Самое страшное — покойная пугающе похожа на саму Сару. Сара совершает странный поступок — она заменяет собой погибшую, выдав себя за неё. Но это становится началом ряда несчастливых событий, которые лишь добавляют Саре проблем. Но на этом не заканчивается. Сара понимает, что она и погибшая не только невероятно похожи друг на друга…

Качество видео: WEB-DLRip

Продолжительность: ~ 00:43:00
Формат: AVI
Видео: XviD, 720х400, 1173 kbps
Аудио #1: русский, многоголосый закадровый [любительский], MP3 2.0, 128 kbps - To4ka
Аудио #2: английский, оригинал, MP3 2.0, 128 kbps

Код:

Общее
Полное имя                               : \Orphan.Black.s03.WEB-DLRip.Rus.Eng.[To4ka.TV]\Orphan.Black.s03e01.WEB-DLRip.Rus.Eng.[To4ka.TV].avi
Формат                                   : AVI
Формат/Информация                        : Audio Video Interleave
Размер файла                             : 450 Мбайт
Продолжительность                        : 43 м.
Общий поток                              : 1443 Кбит/сек
Программа кодирования                    : VirtualDubModRus 1.5.10.2 (build 2542/release)
Библиотека кодирования                   : VirtualDubMod build 2542/release

Видео
Идентификатор                            : 0
Формат                                   : MPEG-4 Visual
Профиль формата                          : Advanced Simple@L5
Параметр BVOP формата                    : 1
Параметр QPel формата                    : Нет
Параметр GMC формата                     : Без точки перехода
Параметр матрицы формата                 : Default (MPEG)
Идентификатор кодека                     : XVID
Идентификатор кодека/Подсказка           : XviD
Продолжительность                        : 43 м.
Битрейт                                  : 1173 Кбит/сек
Ширина                                   : 720 пикселей
Высота                                   : 400 пикселей
Соотношение сторон                       : 16:9
Частота кадров                           : 23,976 кадра/сек
Цветовое пространство                    : YUV
Субдискретизация насыщенности            : 4:2:0
Битовая глубина                          : 8 бит
Тип развёртки                            : Прогрессивная
Метод сжатия                             : С потерями
Бит/(Пиксели*Кадры)                      : 0.170
Размер потока                            : 366 Мбайт (81%)
Библиотека кодирования                   : XviD 73

Аудио #1
Идентификатор                            : 1
Формат                                   : MPEG Audio
Версия формата                           : Version 1
Профиль формата                          : Layer 3
Режим                                    : Joint stereo
Расширение режима                        : MS Stereo
Идентификатор кодека                     : 55
Идентификатор кодека/Подсказка           : MP3
Продолжительность                        : 43 м.
Вид битрейта                             : Постоянный
Битрейт                                  : 128 Кбит/сек
Каналы                                   : 2 канала
Частота                                  : 48,0 КГц
Метод сжатия                             : С потерями
Размер потока                            : 39,9 Мбайт (9%)
Выравнивание                             : Соединение по промежуткам
Продолжительность промежутка             : 42  мс. (1,00 видеокадр)
Время предзагрузки промежутка            : 504  мс.

Аудио #2
Идентификатор                            : 2
Формат                                   : MPEG Audio
Версия формата                           : Version 1
Профиль формата                          : Layer 3
Режим                                    : Joint stereo
Расширение режима                        : MS Stereo
Идентификатор кодека                     : 55
Идентификатор кодека/Подсказка           : MP3
Продолжительность                        : 43 м.
Вид битрейта                             : Постоянный
Битрейт                                  : 128 Кбит/сек
Каналы                                   : 2 канала
Частота                                  : 48,0 КГц
Метод сжатия                             : С потерями
Размер потока                            : 39,9 Мбайт (9%)
Выравнивание                             : Соединение по промежуткам
Продолжительность промежутка             : 42  мс. (1,00 видеокадр)
Время предзагрузки промежутка            : 504  мс.



Релиз группы:

picpicpicpicpic
Для увеличения картинки щелкните мышкой по превью

Этот торрент недоступен для скачивания без регистрации, однако доступен по публичной magnet-ссылке (источники с публичных трекеров). Перед использованием ссылки прочтите, пожалуйста Пользовательское соглашение, а также как можно дольше оставайтесь на раздаче! Для того, чтобы скачать сам торрент-файл (который видит больше источников), а также для того, чтобы поблагодарить релизера, вам необходимо зарегистрироваться. Если регистрироваться лень - вы можете также попробовать скачать релиз по нашим партнерским ссылкам ниже.

[underverse.su].t57983.torrent
Трекер: Зарегистрирован   [ 08.09.2015 15:42 ]  

Статус: проверено (by makkol at 08.09.2015 15:56)
Поблагодарили: пока никто не поблагодарил...
Тип торрента: публичный - доступные источники с открытых трекеров: 
Размер: 4,4 GB (занимает 1 DVDR, для записи нужно 2 болванки DVDR/RW)
 
 
Похожие темы
Форум Тема Автор Торрент Отв. Посл. сооб.
Зарубежные сериалы Тёмное дитя / Orphan Black / Сезон 1 / серии 1-10 (10) ( Джон Фоусет, Т.Дж. Скотт) [2013 г., Фантастика, боевик, WEBDLRip] MVO + Original Чертёнок
0 | 0

4 | 2999

16

03.06.2013 08:14

Зарубежные сериалы Тёмное Дитя / Orphan Black / Сезон 2 (1-10 серии из 10) (Джон Фоусет, Дэвид Фрэйзи, Т.Дж. Скотт) [2014 г., фантастика, боевик, драма, WEB-DLRip] MVO + Original older
33 | 4

0 | 437

2

08.09.2015 15:15


Яндекс.Метрика powered by Sphinx


В Н И М А Н И Е
Сайт не распространяет и не хранит электронные версии произведений, а лишь бесплатно и без коммерческой выгоды (не требуя взамен платы,
SMS и т.д.) предоставляет доступ к создаваемому пользователями каталогу ссылок на торрент-файлы, которые содержат только списки хеш-сумм.
Убедительная просьба с жалобами обращаться напрямую к пользователю, разместившему торрент файл.

Вверх