Loading...
Error

Убийство в "Восточном экспрессе" / Orient Kyuuko Satsujin Jiken / Сезон 1 (1-2 серии из 2) (Кейта Коно) [2015 г., детектив, HDTVRip] DVO

Статистика раздачи
Размер:  4 GB   |    Зарегистрирован:  1 год 3 месяца   |    Скачан:  2 раза

Полного источника не было: 1 год 1 месяц

Сидов:  0  |  0 KB/s  ]   Личеров:  0  |  0 KB/s  ]

* - сиды/пиры с внешних источников

   
 
Автор Сообщение

older Пол:Муж

08-Сен-2015 14:11

Убийство в "Восточном экспрессе" / Orient Kyuuko Satsujin Jiken / Сезон 1 (1-2 серии из 2)


Год выпуска: 2015
Жанр: детектив
Страна: Япония
Режиссер: Кейта Коно
В ролях: Nomura Mansai - Сугуро Такэру, Takahashi Katsumi – Баку, Sasano Takashi - доктор Суда, Ninomiya Kazunari - Макуути Хэйта, Tamaki Hiroshi - граф Андо, Anne - графиня Андо, Sawamura Ikki - Ното Ивао, Matsushima Nanako - Баба Майко, Ikematsu Sosuke - Хадзама Сайскэ, Yagi Akiko - Курэта Соноко, Aoki Sayaka - Хирудэгава Сумико, Fujimoto Takahiro - Хотода Тамио, Fuji Sumiko - госпожа Хатори, Kobayashi Takashi - Масуда Эцудо, Kusabue Mitsuko - Тодороки Нацу, Nishida Toshiyuki - Мики Буити, Sato Koichi - Тодо Осаму
Сюжет фильма:
Адаптация знаменитого детективного романа Агаты Кристи. Известный сыщик Сугуро Такэру возвращается на поезде в Токио после раскрытия очередного дела. Ночью экспресс останавливается из-за завала на путях. А с утра одного из пассажиров находят убитым. Судя по всему, убийца ещё в поезде, и главному герою предстоит найти его.

Качество видео: HDTVRip

Продолжительность: 02:25:57+02:18:53
Формат: AVI
Видео: XviD, 720х400, 1807 kbps
Аудио: русский, двухголосый закадровый [любительский], MP3 2.0, 192 kbps - GREEN TEA

Код:

Общее
Полное имя                               : \Murder on the Orient Express (2015) HDTVRip\Orient Kyuuko Satsujin Jiken E01 HDTVRip.avi
Формат                                   : AVI
Формат/Информация                        : Audio Video Interleave
Профиль формата                          : OpenDML
Размер файла                             : 2,05 Гбайт
Продолжительность                        : 2 ч. 25 м.
Общий поток                              : 2013 Кбит/сек
Программа кодирования                    : XviD4PSP 6.0 / 54.29.105

Видео
Идентификатор                            : 0
Формат                                   : xvid
Идентификатор кодека                     : xvid
Продолжительность                        : 2 ч. 25 м.
Битрейт                                  : 1807 Кбит/сек
Ширина                                   : 720 пикселей
Высота                                   : 400 пикселей
Соотношение сторон                       : 16:9
Частота кадров                           : 29,970 кадров/сек
Бит/(Пиксели*Кадры)                      : 0.209
Размер потока                            : 1,84 Гбайт (90%)

Аудио
Идентификатор                            : 1
Формат                                   : MPEG Audio
Версия формата                           : Version 1
Профиль формата                          : Layer 3
Режим                                    : Joint stereo
Расширение режима                        : MS Stereo
Идентификатор кодека                     : 55
Идентификатор кодека/Подсказка           : MP3
Продолжительность                        : 2 ч. 25 м.
Вид битрейта                             : Постоянный
Битрейт                                  : 192 Кбит/сек
Каналы                                   : 2 канала
Частота                                  : 48,0 КГц
Метод сжатия                             : С потерями
Размер потока                            : 200 Мбайт (10%)
Выравнивание                             : Соединение по промежуткам
Продолжительность промежутка             : 24  мс. (0,72 видеокадр)
Библиотека кодирования                   : LAME№iЙI8ЅЭЅ »tz%»



Релиз группы:

picpicpic
Для увеличения картинки щелкните мышкой по превью

Этот торрент недоступен для скачивания без регистрации, однако доступен по публичной magnet-ссылке (источники с публичных трекеров). Перед использованием ссылки прочтите, пожалуйста Пользовательское соглашение, а также как можно дольше оставайтесь на раздаче! Для того, чтобы скачать сам торрент-файл (который видит больше источников), а также для того, чтобы поблагодарить релизера, вам необходимо зарегистрироваться. Если регистрироваться лень - вы можете также попробовать скачать релиз по нашим партнерским ссылкам ниже.

[underverse.su].t57981.torrent
Трекер: Зарегистрирован   [ 08.09.2015 14:11 ]  

Статус: проверено (by makkol at 08.09.2015 15:47)
Поблагодарили: пока никто не поблагодарил...
Тип торрента: публичный - доступные источники с открытых трекеров: 
Размер: 4 GB (занимает 0,91 DVDR, для записи нужно 1 болванка DVDR/RW)
 
 
Похожие темы
Форум Тема Автор Торрент Отв. Посл. сооб.
Другие фильмы Убийство в южном стиле / Southern Fried Homicide (1 сезон: 10 серий из 10) / (Ребека Дифенбах) [2013 г., документальный, расследования, криминал, SatRip] VO ARI71
2 | 3

0 | 248

0

13.11.2016 09:11

Архив Убийство в Вегасе / Magic Man (Роско Левер) [2009 г., триллер, криминал, детектив, ..., DVD-5] andrej-ku
0 | 0

3 | 883

2

16.06.2011 08:09


Яндекс.Метрика powered by Sphinx


В Н И М А Н И Е
Сайт не распространяет и не хранит электронные версии произведений, а лишь бесплатно и без коммерческой выгоды (не требуя взамен платы,
SMS и т.д.) предоставляет доступ к создаваемому пользователями каталогу ссылок на торрент-файлы, которые содержат только списки хеш-сумм.
Убедительная просьба с жалобами обращаться напрямую к пользователю, разместившему торрент файл.

Вверх