Loading...
Error

Доказательство / Proof / Сезон 1 (1-10 серии из 10) (Алекс Грейвз, Эллисон Андерс, Нельсон МакКормик) [2015 г., драма, WEB-DLRip] MVO + Original

Статистика раздачи
Размер:  5,38 GB   |    Зарегистрирован:  1 год 1 месяц   |    Скачан:  10 раз

Полного источника не было: 23 дня

Сидов:  0  |  0 KB/s  ]   Личеров:  0  |  0 KB/s  ]

* - сиды/пиры с внешних источников

   
 
Автор Сообщение

older Пол:Муж

08-Сен-2015 08:54

Доказательство / Proof / Сезон 1


Год выпуска: 2015
Жанр: драма
Страна: США , Канада
Режиссер: Алекс Грейвз, Эллисон Андерс, Нельсон МакКормик
В ролях: Джо Мортон, Дженнифер Билз, Эди Гатеги, Каллум Блу, Кэролайн Роуз Каплан, Мэттью Модайн, Энни Турман, Дэвид Сатклифф, Констанс Эджума, Габриель Роз
Сюжет фильма:
История о женщине-хирурге по имени Кэтрин. Один миллиардер уговаривает ее заняться исследованием случаев реинкарнации, клинической смерти и призраков — все это, чтобы ответить на один вопрос: смерть — это действительно конец, или есть еще что-то после нее?

Качество видео: WEB-DLRip

Продолжительность: ~ 00:43:00
Формат: AVI
Видео: XviD, 720х400, 1512 kbps
Аудио #1: русский, многоголосый закадровый [любительский], MP3 2.0, 128 kbps - Etvox Film
Аудио #2: английский, оригинал, MP3 2.0, 128 kbps
01. Pilot
02. До смерти (Til' Death)
03. Разборки (Showdown)
04. Выкуп (Redemption)
05. Напоминание жизни(Memento Vivere)
06. Личные дела (Private Matters)
07. Святой Лука (St. Luke's)
08. Заново родиться (Reborn)
09. Цунами: Часть Первая (Tsunami: Part One)
10. Цунами: Часть Вторая (Tsunami: Part Two)

Код:

Общее
Полное имя                               : \Proof.S01.WEB-DLRip.RusEng.Etvox Film\Proof.S01E01.WEB-DLRip.RusEng.Etvox Film.avi
Формат                                   : AVI
Формат/Информация                        : Audio Video Interleave
Размер файла                             : 551 Мбайт
Продолжительность                        : 43 м.
Общий поток                              : 1781 Кбит/сек
Программа кодирования                    : VirtualDubMod 1.5.10.3 (build 2550/release)
Библиотека кодирования                   : VirtualDubMod build 2550/release

Видео
Идентификатор                            : 0
Формат                                   : MPEG-4 Visual
Профиль формата                          : Advanced Simple@L5
Параметр BVOP формата                    : 1
Параметр QPel формата                    : Нет
Параметр GMC формата                     : Без точки перехода
Параметр матрицы формата                 : Default (H.263)
Идентификатор кодека                     : XVID
Идентификатор кодека/Подсказка           : XviD
Продолжительность                        : 43 м.
Битрейт                                  : 1512 Кбит/сек
Ширина                                   : 720 пикселей
Высота                                   : 400 пикселей
Соотношение сторон                       : 16:9
Частота кадров                           : 23,976 кадра/сек
Цветовое пространство                    : YUV
Субдискретизация насыщенности            : 4:2:0
Битовая глубина                          : 8 бит
Тип развёртки                            : Прогрессивная
Метод сжатия                             : С потерями
Бит/(Пиксели*Кадры)                      : 0.219
Размер потока                            : 467 Мбайт (85%)
Библиотека кодирования                   : XviD 73

Аудио #1
Идентификатор                            : 1
Формат                                   : MPEG Audio
Версия формата                           : Version 1
Профиль формата                          : Layer 3
Режим                                    : Joint stereo
Расширение режима                        : MS Stereo
Идентификатор кодека                     : 55
Идентификатор кодека/Подсказка           : MP3
Продолжительность                        : 43 м.
Вид битрейта                             : Постоянный
Битрейт                                  : 128 Кбит/сек
Каналы                                   : 2 канала
Частота                                  : 48,0 КГц
Метод сжатия                             : С потерями
Размер потока                            : 39,6 Мбайт (7%)
Выравнивание                             : Соединение по промежуткам
Продолжительность промежутка             : 42  мс. (1,00 видеокадр)
Время предзагрузки промежутка            : 504  мс.

Аудио #2
Идентификатор                            : 2
Формат                                   : MPEG Audio
Версия формата                           : Version 1
Профиль формата                          : Layer 3
Режим                                    : Joint stereo
Расширение режима                        : MS Stereo
Идентификатор кодека                     : 55
Идентификатор кодека/Подсказка           : MP3
Продолжительность                        : 43 м.
Вид битрейта                             : Постоянный
Битрейт                                  : 128 Кбит/сек
Каналы                                   : 2 канала
Частота                                  : 48,0 КГц
Метод сжатия                             : С потерями
Размер потока                            : 39,6 Мбайт (7%)
Выравнивание                             : Соединение по промежуткам
Продолжительность промежутка             : 42  мс. (1,00 видеокадр)
Время предзагрузки промежутка            : 504  мс.

Роли озвучивали: Мария Субботник, Елена Барышева, Юрий Орлов, Виктор Маренин
Внимание! Раздача ведётся путём добавления новых серий.
При каждом добавлении создаётся новый торрент. Чтобы начать докачку новой серии, пользователям необходимо сделать следующее:
1. Остановить скачивание,
2. Удалить старый торрент у себя из клиента (старые серии удалять не надо),
3. Скачать новый торрент и запустить его у себя в клиенте вместо старого, при этом указать клиенту путь в старую папку куда и должно происходить скачивание новых серий.
Ваш клиент при этом должен произвести хеширование (проверку) старой папки (если не производит сам - помогите ему сделать это), и будет докачивать только те серии которых у вас ещё нет. Старые серии при этом не удаляются, а продолжают раздаваться!
Если вы уже удалили старые серии, то предотвратить повторную закачку старых серий можно, отжав галочку в соответствующих местах при запуске нового торрента.
Релиз группы:

picpicpicpicpic
Для увеличения картинки щелкните мышкой по превью


19.10.15. Раздача обновлена!
Добавлена 10, последняя серия. Сезон представлен полностью.
Перекачайте торрент файл!

Этот торрент недоступен для скачивания без регистрации, однако доступен по публичной magnet-ссылке (источники с публичных трекеров). Перед использованием ссылки прочтите, пожалуйста Пользовательское соглашение, а также как можно дольше оставайтесь на раздаче! Для того, чтобы скачать сам торрент-файл (который видит больше источников), а также для того, чтобы поблагодарить релизера, вам необходимо зарегистрироваться. Если регистрироваться лень - вы можете также попробовать скачать релиз по нашим партнерским ссылкам ниже.

[underverse.su].t57975.torrent
Трекер: Зарегистрирован   [ 19.10.2015 14:15 ]  

Статус: проверено (by makkol at 19.10.2015 15:58)
Поблагодарили: 1 человек
Тип торрента: публичный - доступные источники с открытых трекеров: 
Размер: 5,38 GB (занимает 1,23 DVDR, для записи нужно 2 болванки DVDR/RW)
 
 
Похожие темы
Форум Тема Автор Торрент Отв. Посл. сооб.
Зарубежное кино [DVDRip, Low-Res HDRip, и т.д.] Доказательство жизни / Proof of life (Тэйлор Хэкфорд / Taylor Hackford) [2000 г., боевик, триллер, драма, DVDRip] GUree
0 | 1

2 | 1074

4

10.01.2012 07:26

Зарубежное кино [DVDRip, Low-Res HDRip, и т.д.] Доказательство Дьявола / Proof of the Devil (Пол Каталанотто) [2014 г., ужасы, BDRip] VO + Original makkol
14 | 0

0 | 429

12

20.11.2015 13:45

Информационно-аналитические передачи Доказательства вины. Смертельный долг [2010 г., документальный, криминальный, TVRip] матроскин
0 | 0

1 | 1549

0

31.08.2013 06:39

Зарубежное кино [HDDVDRip / BDRip / WEB-DL / HDTV 1080/720р] Доказательство Дьявола / Proof of the Devil (Пол Каталанотто) [2014 г., ужасы, BDRip 1080p] VO + Original makkol
1 | 0

0 | 455

10

20.11.2015 13:54

* Архив Доказательство смерти / Death Proof (Квентин Тарантино) [2007 г., боевик, триллер, криминал, DVD-9] Bratok

2 | 975

12.09.2010 19:40



Последний раз редактировалось: older (19.10.2015 14:26), всего редактировалось 4 раз(а)

older Пол:Муж

09-Сен-2015 03:35

09.09.15. Раздача обновлена!
Добавлена 6 серия.
Перекачайте торрент файл!

Nath 

09-Сен-2015 13:04

Хотел поблагодарить-пишут флуд Нельзя чаще ,чем 1 раз в пять минут.Ладно.Спасибо! Посмотрим!

older Пол:Муж

12-Окт-2015 16:56

12.10.15. Раздача обновлена!
Добавлены 7-9 серии.
Перекачайте торрент файл!

older Пол:Муж

19-Окт-2015 14:16

19.10.15. Раздача обновлена!
Добавлена 10, последняя серия. Сезон представлен полностью.
Перекачайте торрент файл!

Яндекс.Метрика powered by Sphinx


В Н И М А Н И Е
Сайт не распространяет и не хранит электронные версии произведений, а лишь бесплатно и без коммерческой выгоды (не требуя взамен платы,
SMS и т.д.) предоставляет доступ к создаваемому пользователями каталогу ссылок на торрент-файлы, которые содержат только списки хеш-сумм.
Убедительная просьба с жалобами обращаться напрямую к пользователю, разместившему торрент файл.

Вверх