Loading...
Error

Z - значит Захария / Z for Zachariah (Крэйг Зобел) [2015 г., фантастика, драма, триллер, WEB-DLRip] VO

Статистика раздачи
Размер:  1,29 GB   |    Зарегистрирован:  1 год 3 месяца   |    Скачан:  29 раз

Полного источника не было: 15 часов

Сидов:  0  |  0 KB/s  ]   Личеров:  0  |  0 KB/s  ]

* - сиды/пиры с внешних источников

   
 
Автор Сообщение

makkol Пол:Муж

07-Сен-2015 23:27

Z - значит Захария / Z for Zachariah


Год выпуска: 2015
Жанр: фантастика, драма, триллер
Страна: Исландия , США
Режиссер: Крэйг Зобел
В ролях: Чиветель Эджиофор, Марго Робби, Крис Пайн
Сюжет фильма:
В разрушенном ядерной войной мире чудом смогла выжить 16-летняя Энн. Она встречает взрослого ученого по имени Люмис, который уже потерял надежду найти свою семью. Энн взрослеет, между ней и Люмисом рождаются чувства. Ситуация усложняется, когда появляется третий выживший — молодой парень Калеб. Начинается война за последнюю женщину на земле…

  • Мировая премьера: 24 января 2015


Перевод: river11
Озвучивание: Хихикающий доктор

Качество видео: WEB-DLRip

Продолжительность: 01:37:55
Формат: AVI
Видео: XviD, 720x304 (2.35:1), 23.976 fps, 1678 kbps
Аудио: русский, любительский одноголосый закадровый, MP3 2.0, 44.1 kHz, 192 kbps

Код:

Общее
Полное имя                               : Z.for.Zachariah.2015.HDRip.Xixidok.avi
Формат                                   : AVI
Формат/Информация                        : Audio Video Interleave
Размер файла                             : 1,29 Гбайт
Продолжительность                        : 1 ч. 37 м.
Общий поток                              : 1880 Кбит/сек
Программа кодирования                    : VirtualDubMod 1.5.10.3 (build 2550/release)
Библиотека кодирования                   : VirtualDubMod build 2550/release

Видео
Идентификатор                            : 0
Формат                                   : MPEG-4 Visual
Профиль формата                          : Advanced Simple@L5
Параметр BVOP формата                    : 2
Параметр QPel формата                    : Нет
Параметр GMC формата                     : Без точки перехода
Параметр матрицы формата                 : Default (H.263)
Режим смешивания                         : Сжатый битовый поток
Идентификатор кодека                     : XVID
Идентификатор кодека/Подсказка           : XviD
Продолжительность                        : 1 ч. 37 м.
Битрейт                                  : 1678 Кбит/сек
Ширина                                   : 720 пикселей
Высота                                   : 304 пикселя
Соотношение сторон                       : 2,35:1
Частота кадров                           : 23,976 кадра/сек
Цветовое пространство                    : YUV
Субдискретизация насыщенности            : 4:2:0
Битовая глубина                          : 8 бит
Тип развёртки                            : Прогрессивная
Метод сжатия                             : С потерями
Бит/(Пиксели*Кадры)                      : 0.320
Размер потока                            : 1,15 Гбайт (89%)
Библиотека кодирования                   : XviD 66

Аудио
Идентификатор                            : 1
Формат                                   : MPEG Audio
Версия формата                           : Version 1
Профиль формата                          : Layer 3
Идентификатор кодека                     : 55
Идентификатор кодека/Подсказка           : MP3
Продолжительность                        : 1 ч. 37 м.
Вид битрейта                             : Постоянный
Битрейт                                  : 192 Кбит/сек
Каналы                                   : 2 канала
Частота                                  : 44,1 КГц
Метод сжатия                             : С потерями
Размер потока                            : 134 Мбайт (10%)
Выравнивание                             : Разделение по промежуткам
Продолжительность промежутка             : 42  мс. (1,00 видеокадр)
Время предзагрузки промежутка            : 500  мс.
Релиз от:

picpicpicpicpic
Для увеличения картинки щелкните мышкой по превью

Этот торрент недоступен для скачивания без регистрации, однако доступен по публичной magnet-ссылке (источники с публичных трекеров). Перед использованием ссылки прочтите, пожалуйста Пользовательское соглашение, а также как можно дольше оставайтесь на раздаче! Для того, чтобы скачать сам торрент-файл (который видит больше источников), а также для того, чтобы поблагодарить релизера, вам необходимо зарегистрироваться. Если регистрироваться лень - вы можете также попробовать скачать релиз по нашим партнерским ссылкам ниже.

[underverse.su].t57970.torrent
Трекер: Зарегистрирован   [ 07.09.2015 23:27 ]  

Статус: проверено (by makkol at 08.09.2015 12:21)
Поблагодарили: 1 человек
Тип торрента: публичный - доступные источники с открытых трекеров: 
Размер: 1,29 GB (занимает 0,29 DVDR, для записи нужно 1 болванка DVDR/RW)
 
 
Похожие темы
Форум Тема Автор Торрент Отв. Посл. сооб.
Зарубежное кино [DVDRip, Low-Res HDRip, и т.д.] Z - значит Захария / Z for Zachariah (Крэйг Зобел) [2015 г., фантастика, драма, триллер, HDRip] MVO makkol
38 | 1

0 | 477

14

03.08.2016 15:45

Зарубежное кино [HDDVDRip / BDRip / WEB-DL / HDTV 1080/720р] Z - значит Захария / Z for Zachariah (Крэйг Зобел) [2015 г., фантастика, драма, триллер, WEB-DL 720p] VO + Original makkol
29 | 0

0 | 648

27

07.09.2015 23:52

Зарубежное кино [HDDVDRip / BDRip / WEB-DL / HDTV 1080/720р] Z - значит Захария / Z for Zachariah (Крэйг Зобел) [2015 г., фантастика, драма, триллер, BDRip 1080p] MVO makkol
12 | 0

0 | 458

6

03.08.2016 15:51


Яндекс.Метрика powered by Sphinx


В Н И М А Н И Е
Сайт не распространяет и не хранит электронные версии произведений, а лишь бесплатно и без коммерческой выгоды (не требуя взамен платы,
SMS и т.д.) предоставляет доступ к создаваемому пользователями каталогу ссылок на торрент-файлы, которые содержат только списки хеш-сумм.
Убедительная просьба с жалобами обращаться напрямую к пользователю, разместившему торрент файл.

Вверх