Loading...
Error

Улица потрошителя / Ripper Street / Сезон 2 (1-8 серии из 8) (Энди Уилсон, Том Шенклэнд, Кирон Хоукс) [2013 г., криминал, детектив, HDTVRip] MVO + Original

Статистика раздачи
Размер:  5,47 GB   |    Зарегистрирован:  1 год 2 месяца   |    Скачан:  3 раза

Полного источника не было: 9 месяцев

Сидов:  0  |  0 KB/s  ]   Личеров:  0  |  0 KB/s  ]

* - сиды/пиры с внешних источников

   
 
Автор Сообщение

older Пол:Муж

07-Сен-2015 16:12

Улица потрошителя / Ripper Street / Сезон 2 (1-8 серии)


Год выпуска: 2013
Жанр: криминал, детектив
Страна: Великобритания , Ирландия
Режиссер: Энди Уилсон, Том Шенклэнд, Кирон Хоукс
В ролях: Мэтью Макфейден, Джером Флинн, Адам Ротенберг, Jonathan Barnwell, Дэвид Уилмот, МайАнна Бёринг, Шарлин МакКенна, Ian Bannon, Аманда Хейл, Ребекка Граймс
Сюжет фильма:
События данного сериала разворачиваются в Лондоне 1889 года, сразу после громких убийств, совершенных Джеком Потрошителем. Команда детективов расследует преступления, попутно стараясь успокоить панику среди жителей Ист-Энда.

Качество видео: HDTVRip

Продолжительность: ~ 00:59:00
Формат: AVI
Видео: XviD, 720х400, 1380 kbps
Аудио #1: русский, многоголосый закадровый [профессиональный], MP3 2.0, 128 kbps
Аудио #2: английский, оригинал, MP3 2.0, 128 kbps

Код:

Общее
Полное имя                               : \Улица потрошителя (2 сезон)\Ripper.Street.s02e01.HDTVRip.*другой трекер*.avi
Формат                                   : AVI
Формат/Информация                        : Audio Video Interleave
Размер файла                             : 699 Мбайт
Продолжительность                        : 59 м.
Общий поток                              : 1650 Кбит/сек
Программа кодирования                    : VirtualDubMod 1.5.10.2 (build 2540/release)
Библиотека кодирования                   : VirtualDubMod build 2540/release

Видео
Идентификатор                            : 0
Формат                                   : MPEG-4 Visual
Профиль формата                          : Advanced Simple@L5
Параметр BVOP формата                    : 2
Параметр QPel формата                    : Нет
Параметр GMC формата                     : Без точки перехода
Параметр матрицы формата                 : Default (MPEG)
Идентификатор кодека                     : XVID
Идентификатор кодека/Подсказка           : XviD
Продолжительность                        : 59 м.
Битрейт                                  : 1380 Кбит/сек
Ширина                                   : 720 пикселей
Высота                                   : 400 пикселей
Соотношение сторон                       : 16:9
Частота кадров                           : 23,976 кадра/сек
Цветовое пространство                    : YUV
Субдискретизация насыщенности            : 4:2:0
Битовая глубина                          : 8 бит
Тип развёртки                            : Прогрессивная
Метод сжатия                             : С потерями
Бит/(Пиксели*Кадры)                      : 0.200
Размер потока                            : 585 Мбайт (84%)
Библиотека кодирования                   : XviD 64

Аудио #1
Идентификатор                            : 1
Формат                                   : MPEG Audio
Версия формата                           : Version 1
Профиль формата                          : Layer 3
Режим                                    : Joint stereo
Расширение режима                        : MS Stereo
Идентификатор кодека                     : 55
Идентификатор кодека/Подсказка           : MP3
Продолжительность                        : 59 м.
Вид битрейта                             : Постоянный
Битрейт                                  : 128 Кбит/сек
Каналы                                   : 2 канала
Частота                                  : 48,0 КГц
Метод сжатия                             : С потерями
Размер потока                            : 54,3 Мбайт (8%)
Выравнивание                             : Соединение по промежуткам
Продолжительность промежутка             : 42  мс. (1,00 видеокадр)
Время предзагрузки промежутка            : 504  мс.

Аудио #2
Идентификатор                            : 2
Формат                                   : MPEG Audio
Версия формата                           : Version 1
Профиль формата                          : Layer 3
Режим                                    : Joint stereo
Расширение режима                        : MS Stereo
Идентификатор кодека                     : 55
Идентификатор кодека/Подсказка           : MP3
Продолжительность                        : 59 м.
Вид битрейта                             : Постоянный
Битрейт                                  : 128 Кбит/сек
Каналы                                   : 2 канала
Частота                                  : 48,0 КГц
Метод сжатия                             : С потерями
Размер потока                            : 54,3 Мбайт (8%)
Выравнивание                             : Соединение по промежуткам
Продолжительность промежутка             : 42  мс. (1,00 видеокадр)
Время предзагрузки промежутка            : 504  мс.

Релиз группы:

picpicpicpicpic
Для увеличения картинки щелкните мышкой по превью

Этот торрент недоступен для скачивания без регистрации, однако доступен по публичной magnet-ссылке (источники с публичных трекеров). Перед использованием ссылки прочтите, пожалуйста Пользовательское соглашение, а также как можно дольше оставайтесь на раздаче! Для того, чтобы скачать сам торрент-файл (который видит больше источников), а также для того, чтобы поблагодарить релизера, вам необходимо зарегистрироваться. Если регистрироваться лень - вы можете также попробовать скачать релиз по нашим партнерским ссылкам ниже.

[underverse.su].t57955.torrent
Трекер: Зарегистрирован   [ 07.09.2015 16:12 ]  

Статус: проверено (by makkol at 07.09.2015 21:51)
Поблагодарили: пока никто не поблагодарил...
Тип торрента: публичный - доступные источники с открытых трекеров: 
Размер: 5,47 GB (занимает 1,25 DVDR, для записи нужно 2 болванки DVDR/RW)
 
 
Похожие темы
Форум Тема Автор Торрент Отв. Посл. сооб.
Зарубежные сериалы Улица потрошителя / Ripper Street [сезон 1 / серии 1- 8 (8)] (Энди Уилсон, Том Шенклэнд, Колм МакКарти) [2012 г., криминал, детектив, WEB-DLRip] MVO (NewStudio) + Original 90ytr90
4 | 0

0 | 1299

10

31.10.2013 06:28

Зарубежные сериалы Улица потрошителя / Ripper Street / Сезон 3 (1-8 серии из 8) (Энди Уилсон, Том Шенклэнд, Кирон Хоукс) [2014 г., криминал, детектив, WEBRip] MVO + Original older
18 | 2

0 | 317

3

07.09.2015 16:31

Зарубежные сериалы [BD / Remux / BDRip / WEB-DL / HDTV 1080/720р] Улица потрошителя / Ripper Street / Сезон: 1 / Серии 8 (8) (Энди Уилсон, Том Шенклэнд, Колм МакКарти) [2012 г., Детектив, WEB-DL-1080p] MVO yuriy1920
0 | 0

7 | 5703

0

02.03.2013 16:35


Яндекс.Метрика powered by Sphinx


В Н И М А Н И Е
Сайт не распространяет и не хранит электронные версии произведений, а лишь бесплатно и без коммерческой выгоды (не требуя взамен платы,
SMS и т.д.) предоставляет доступ к создаваемому пользователями каталогу ссылок на торрент-файлы, которые содержат только списки хеш-сумм.
Убедительная просьба с жалобами обращаться напрямую к пользователю, разместившему торрент файл.

Вверх