Loading...
Error

Уэнтуорт / Wentworth / Сезон 1 (1-10 серии из 10) (Кевин Карлин, Катрин Миллар, Стив Джодрелл) [2013 г., драма, криминал, HDTVRip] MVO

Статистика раздачи
Размер:  4,97 GB   |    Зарегистрирован:  1 год 3 месяца   |    Скачан:  3 раза

Полного источника не было: 1 месяц 27 дней

Сидов:  0  |  0 KB/s  ]   Личеров:  0  |  0 KB/s  ]

* - сиды/пиры с внешних источников

   
 
Автор Сообщение

older Пол:Муж

07-Сен-2015 15:03

Уэнтуорт / Wentworth / Сезон 1 (1-10 серии из 10)


Год выпуска: 2013
Жанр: драма, криминал
Страна: Австралия
Режиссер: Кевин Карлин, Катрин Миллар, Стив Джодрелл
В ролях: Николь Да Силва, Лианна Уолсмен, Даниэль Кормак, Крис МакКвейд, Кейт Эткинсон, Шарина Клэнтон, Селия Айрлэнд, Кэтрин МакКлементс, Робби Магасива, Аарон Джеффри
Сюжет фильма:
Уэнтуорт — драматический сериал с очень динамичным и захватывающим сюжетом о сотрудниках и заключенных сверхзасекреченной женской тюрьмы в Австралии. Здесь существуют свои правила выживания, несоблюдение которых может стоить жизни. Каждая серия — это история жизни одного из героев. Мы лучше узнаем о его характере, об обстоятельствах жизни, которые привели его в тюрьму. И оказывается, что разница между заключенными и служащими тюрьмы не такая уже большая, и те, и другие, являются узниками, только каждый по-своему.

Качество видео: HDTVRip

Продолжительность: ~ 00:47:00
Формат: AVI
Видео: XviD, 720х400, 1494 kbps
Аудио: русский, многоголосый закадровый [любительский], MP3 2.0, 128 kbps

Код:

Общее
Полное имя                               : G:\Torrents G\1\Wentworth 1 season\Wentworth.s01e01.avi
Формат                                   : AVI
Формат/Информация                        : Audio Video Interleave
Размер файла                             : 557 Мбайт
Продолжительность                        : 47 м.
Общий поток                              : 1635 Кбит/сек
Программа кодирования                    : Lavf52.52.0

Видео
Идентификатор                            : 0
Формат                                   : MPEG-4 Visual
Профиль формата                          : Simple@L3
Параметр BVOP формата                    : Нет
Параметр QPel формата                    : Нет
Параметр GMC формата                     : Без точки перехода
Параметр матрицы формата                 : Default (H.263)
Идентификатор кодека                     : XVID
Идентификатор кодека/Подсказка           : XviD
Продолжительность                        : 47 м.
Битрейт                                  : 1494 Кбит/сек
Ширина                                   : 720 пикселей
Высота                                   : 400 пикселей
Соотношение сторон                       : 16:9
Частота кадров                           : 25,000 кадров/сек
Цветовое пространство                    : YUV
Субдискретизация насыщенности            : 4:2:0
Битовая глубина                          : 8 бит
Тип развёртки                            : Прогрессивная
Метод сжатия                             : С потерями
Бит/(Пиксели*Кадры)                      : 0.207
Размер потока                            : 509 Мбайт (91%)
Библиотека кодирования                   : XviD 1.3.0.dev55

Аудио
Идентификатор                            : 1
Формат                                   : MPEG Audio
Версия формата                           : Version 1
Профиль формата                          : Layer 3
Режим                                    : Joint stereo
Расширение режима                        : MS Stereo
Идентификатор кодека                     : 55
Идентификатор кодека/Подсказка           : MP3
Продолжительность                        : 47 м.
Вид битрейта                             : Постоянный
Битрейт                                  : 128 Кбит/сек
Каналы                                   : 2 канала
Частота                                  : 48,0 КГц
Метод сжатия                             : С потерями
Размер потока                            : 43,6 Мбайт (8%)
Выравнивание                             : Соединение по промежуткам
Продолжительность промежутка             : 24  мс. (0,60 видеокадр)

Релиз группы:

picpicpicpicpic
Для увеличения картинки щелкните мышкой по превью

Этот торрент недоступен для скачивания без регистрации, однако доступен по публичной magnet-ссылке (источники с публичных трекеров). Перед использованием ссылки прочтите, пожалуйста Пользовательское соглашение, а также как можно дольше оставайтесь на раздаче! Для того, чтобы скачать сам торрент-файл (который видит больше источников), а также для того, чтобы поблагодарить релизера, вам необходимо зарегистрироваться. Если регистрироваться лень - вы можете также попробовать скачать релиз по нашим партнерским ссылкам ниже.

[underverse.su].t57954.torrent
Трекер: Зарегистрирован   [ 07.09.2015 15:03 ]  

Статус: проверено (by makkol at 07.09.2015 21:47)
Поблагодарили: пока никто не поблагодарил...
Тип торрента: публичный - доступные источники с открытых трекеров: 
Размер: 4,97 GB (занимает 1,13 DVDR, для записи нужно 2 болванки DVDR/RW)
 
 

Яндекс.Метрика powered by Sphinx


В Н И М А Н И Е
Сайт не распространяет и не хранит электронные версии произведений, а лишь бесплатно и без коммерческой выгоды (не требуя взамен платы,
SMS и т.д.) предоставляет доступ к создаваемому пользователями каталогу ссылок на торрент-файлы, которые содержат только списки хеш-сумм.
Убедительная просьба с жалобами обращаться напрямую к пользователю, разместившему торрент файл.

Вверх