Loading...
Error

Скандал / Scandal / Сезон 4 (1-22 серии из 22) (Том Верика, Оливер Бокельберг, Рэндолл Зиск) [2014 г., триллер, драма, WEB-DLRip] MVO + Original

Статистика раздачи
Размер:  10,73 GB   |    Зарегистрирован:  1 год 2 месяца   |    Скачан:  3 раза

Полного источника не было: 3 месяца 26 дней

Сидов:  0  |  0 KB/s  ]   Личеров:  0  |  0 KB/s  ]

* - сиды/пиры с внешних источников

   
 
Автор Сообщение

older Пол:Муж

07-Сен-2015 13:54

Скандал / Scandal / Сезон 4 (1-22 серии из 22)


Год выпуска: 2014
Жанр: триллер, драма
Страна: США
Режиссер: Том Верика, Оливер Бокельберг, Рэндолл Зиск
В ролях: Керри Вашингтон, Генри Йен Кьюсик, Коламбус Шорт, Дэрби Стэнчфилд, Кэти Лоус, Гильермо Диас, Джефф Перри, Тони Голдуин, Джошуа Малина, Беллами Янг, Мэтт Летчер, Лиза Вейл
Сюжет фильма:
Специалист по связям с общественностью Оливия Поуп, ранее работавшая на президента США, создает свое антикризисное агенство, цель которого — устранять проблемы высокопоставленных клиентов до того, как они станут всеобщим достоянием. Но если Вы посвящаете 24 часа в сутки решению проблем других людей, у Вас просто не будет времени, чтобы заняться своей собственной жизнью. Поэтому несмотря на то, что Оливия и ее команда самых блестящих специалистов прекрасно справляются с решением самых деликатных ситуаций своих клиентов, их собственная жизнь полна всякого рода проблем.

Качество видео: WEB-DLRip

Продолжительность: ~ 00:43:00
Формат: AVI
Видео: XviD, 720х400, 1351 kbps
Аудио #1: русский, многоголосый закадровый [профессиональный], MP3 2.0, 128 kbps - Fox Life
Аудио #2: английский, оригинал, MP3 2.0, 128 kbps
01. Randy, Red, Superfreak and Julia
02. The State of the Union
03. Inside the Bubble
04. Like Father, Like Daughter
05. The Key
06. An Innocent Man
07. Baby Made a Mess
08. The Last Supper
09. Where the Sun Don't Shine
10. Run
11. Where's the Black Lady?
12. Gladiators Don't Run
13. No More Blood
14. The Lawn Chair
15. The Testimony of Diego Muñoz
16. t's Good to Be Kink
17. Put a Ring on It
18. Honor Thy Father
19. I'm Just a Bill
20. First Lady Sings the Blues
21. A Few Good Women
22. You Can't Take Command

Код:

Общее
Полное имя                               : \Скандал (сезон 4) Scandal (2014) WEB-DLRip - NewStudio\Scandal.s04e01.WEBDLRip.*другой трекер*.avi
Формат                                   : AVI
Формат/Информация                        : Audio Video Interleave
Размер файла                             : 499 Мбайт
Продолжительность                        : 43 м.
Общий поток                              : 1621 Кбит/сек
Программа кодирования                    : VirtualDubMod 1.5.10.2 (build 2540/release)
Библиотека кодирования                   : VirtualDubMod build 2540/release

Видео
Идентификатор                            : 0
Формат                                   : MPEG-4 Visual
Профиль формата                          : Advanced Simple@L5
Параметр BVOP формата                    : 2
Параметр QPel формата                    : Нет
Параметр GMC формата                     : Без точки перехода
Параметр матрицы формата                 : Default (MPEG)
Идентификатор кодека                     : XVID
Идентификатор кодека/Подсказка           : XviD
Продолжительность                        : 43 м.
Битрейт                                  : 1351 Кбит/сек
Ширина                                   : 720 пикселей
Высота                                   : 400 пикселей
Соотношение сторон                       : 16:9
Частота кадров                           : 23,976 кадра/сек
Цветовое пространство                    : YUV
Субдискретизация насыщенности            : 4:2:0
Битовая глубина                          : 8 бит
Тип развёртки                            : Прогрессивная
Метод сжатия                             : С потерями
Бит/(Пиксели*Кадры)                      : 0.196
Размер потока                            : 416 Мбайт (83%)
Библиотека кодирования                   : XviD 64

Аудио #1
Идентификатор                            : 1
Формат                                   : MPEG Audio
Версия формата                           : Version 1
Профиль формата                          : Layer 3
Режим                                    : Joint stereo
Расширение режима                        : MS Stereo
Идентификатор кодека                     : 55
Идентификатор кодека/Подсказка           : MP3
Продолжительность                        : 43 м.
Вид битрейта                             : Постоянный
Битрейт                                  : 128 Кбит/сек
Каналы                                   : 2 канала
Частота                                  : 48,0 КГц
Метод сжатия                             : С потерями
Размер потока                            : 39,4 Мбайт (8%)
Выравнивание                             : Соединение по промежуткам
Продолжительность промежутка             : 42  мс. (1,00 видеокадр)
Время предзагрузки промежутка            : 504  мс.

Аудио #2
Идентификатор                            : 2
Формат                                   : MPEG Audio
Версия формата                           : Version 1
Профиль формата                          : Layer 3
Режим                                    : Joint stereo
Расширение режима                        : MS Stereo
Идентификатор кодека                     : 55
Идентификатор кодека/Подсказка           : MP3
Продолжительность                        : 43 м.
Вид битрейта                             : Постоянный
Битрейт                                  : 128 Кбит/сек
Каналы                                   : 2 канала
Частота                                  : 48,0 КГц
Метод сжатия                             : С потерями
Размер потока                            : 39,4 Мбайт (8%)
Выравнивание                             : Соединение по промежуткам
Продолжительность промежутка             : 42  мс. (1,00 видеокадр)
Время предзагрузки промежутка            : 504  мс.

Релиз группы:

pic pic pic pic pic
Для увеличения картинки щелкните мышкой по превью

Этот торрент недоступен для скачивания без регистрации, однако доступен по публичной magnet-ссылке (источники с публичных трекеров). Перед использованием ссылки прочтите, пожалуйста Пользовательское соглашение, а также как можно дольше оставайтесь на раздаче! Для того, чтобы скачать сам торрент-файл (который видит больше источников), а также для того, чтобы поблагодарить релизера, вам необходимо зарегистрироваться. Если регистрироваться лень - вы можете также попробовать скачать релиз по нашим партнерским ссылкам ниже.

[underverse.su].t57952.torrent
Трекер: Зарегистрирован   [ 07.09.2015 13:54 ]  

Статус: проверено (by makkol at 07.09.2015 21:45)
Поблагодарили: пока никто не поблагодарил...
Тип торрента: публичный - доступные источники с открытых трекеров: 
Размер: 10,73 GB (занимает 2,45 DVDR, для записи нужно 3 болванки DVDR/RW)
 
 
Похожие темы
Форум Тема Автор Торрент Отв. Посл. сооб.
Зарубежное кино [DVDRip, Low-Res HDRip, и т.д.] Скандал / Scandal (Майкл Кэйтон-Джоунс / Michael Caton-Jones) [1989 г., драма, история, DVDRip] DVO (НТВ+) + Original (Eng) 90ytr90
4 | 0

0 | 578

4

01.10.2014 15:13

Зарубежные сериалы Скандал / Scandal / Сезоны 1-3 (1-47 серии из 47) (Том Верика, Оливер Бокельберг, Рэндолл Зиск) [2012-2013 г., триллер, драма, WEB-DLRip] MVO + Original older
5 | 7

0 | 339

2

07.09.2015 13:25


Яндекс.Метрика powered by Sphinx


В Н И М А Н И Е
Сайт не распространяет и не хранит электронные версии произведений, а лишь бесплатно и без коммерческой выгоды (не требуя взамен платы,
SMS и т.д.) предоставляет доступ к создаваемому пользователями каталогу ссылок на торрент-файлы, которые содержат только списки хеш-сумм.
Убедительная просьба с жалобами обращаться напрямую к пользователю, разместившему торрент файл.

Вверх