Loading...
Error

Золотые угри / Zlati uhori / Golden Eels (Карел Кахиня) [1979 г., драма, HDTVRip] VO + Original + Subs

Статистика раздачи
Размер:  1,46 GB   |    Зарегистрирован:  1 год 3 месяца   |    Скачан:  6 раз

Полного источника не было: 9 месяцев

Сидов:  0  |  0 KB/s  ]   Личеров:  0  |  0 KB/s  ]

* - сиды/пиры с внешних источников

   
 
Автор Сообщение

makkol Пол:Муж

07-Сен-2015 11:02

Золотые угри / Zlati uhori / Golden Eels


Год выпуска: 1979
Жанр: драма
Страна: Чехословакия
Режиссер: Карел Кахиня
В ролях: Мартин Микулаш, Владимир Мензик, Мирослава Гозова, Рудольф Грушински, Радослав Брзобогаты, Элиска Балцерова, Томаш Мурдых, Михал Вейростек, Зденек Мартинек
Сюжет фильма:
Фильм о маленьком мальчике Вертелке, уехавшем с семьей из Праги в деревню перед началом Второй мировой войны. Там мальчишка подружился с местным рыболовом и постигает премудрости рыбной ловли. В наступившие затем с приходом фашистов нелегкие времена его таланты помогают кормить семью. Проходя сквозь различные испытания мальчик проявляет мужество, упорство в достижении целей - и даже идет на конфронтацию с матерью, чтобы доказать свою любовь к отцу и братьям. Несмотря на приобретенную твердость характера, мальчик не очерствел душой, и финальная сцена в фильме очень красиво это показывает.

  • Мировая премьера: 12 декабря 1987


Перевод: Роман Зайцев, Александр Бриз
Озвучивание: Хуан Рохас

Качество видео: HDTVRip

Продолжительность: 01:23:05
Формат: AVI
Видео: XviD, 704x512 (1.38:1), 25.000 fps, 2120 kbps
Аудио #1: русский, любительский одноголосый закадровый, AC3 2.0, 48 kHz, 192 kbps
Аудио #2: чешский, оригинал, AC3 2.0, 48 kHz, 192 kbps
Субтитры: русские (romkah), английские внешние, SRT

Код:

General
Complete name : Zlati.uhori.1979.HDTVRip.1.45.Gb.by Fredd Kruger.avi
Format : AVI
Format/Info : Audio Video Interleave
File size : 1.46 GiB
Duration : 1h 23mn
Overall bit rate : 2 520 Kbps
Writing application : VirtualDubMod 1.5.10.3 | www.virtualdub-fr.org || (build 2550/release)
Writing library : VirtualDubMod build 2550/release

Video
ID : 0
Format : MPEG-4 Visual
Format profile : Advanced Simple@L5
Format settings, BVOP : 1
Format settings, QPel : No
Format settings, GMC : No warppoints
Format settings, Matrix : Custom
Codec ID : XVID
Codec ID/Hint : XviD
Duration : 1h 23mn
Bit rate : 2 121 Kbps
Width : 704 pixels
Height : 512 pixels
Display aspect ratio : 1.375
Frame rate : 25.000 fps
Color space : YUV
Chroma subsampling : 4:2:0
Bit depth : 8 bits
Scan type : Progressive
Compression mode : Lossy
Bits/(Pixel*Frame) : 0.235
Stream size : 1.23 GiB (84%)
Writing library : XviD 73

Audio #1
ID : 1
Format : AC-3
Format/Info : Audio Coding 3
Codec ID : 2000
Duration : 1h 23mn
Bit rate mode : Constant
Bit rate : 192 Kbps
Channel count : 2 channels
Sampling rate : 48.0 KHz
Compression mode : Lossy
Stream size : 114 MiB (8%)
Alignment : Split accross interleaves
Interleave, duration : 40 ms (1.00 video frame)
Interleave, preload duration : 500 ms

Audio #2
ID : 2
Format : AC-3
Format/Info : Audio Coding 3
Mode extension : CM (complete main)
Format settings, Endianness : Big
Codec ID : 2000
Duration : 1h 23mn
Bit rate mode : Constant
Bit rate : 192 Kbps
Channel count : 2 channels
Channel positions : Front: L R
Sampling rate : 48.0 KHz
Bit depth : 16 bits
Compression mode : Lossy
Stream size : 114 MiB (8%)
Alignment : Split accross interleaves
Interleave, duration : 40 ms (1.00 video frame)
Interleave, preload duration : 500 ms
Релиз:

picpicpicpicpic
Для увеличения картинки щелкните мышкой по превью

Этот торрент недоступен для скачивания без регистрации, однако доступен по публичной magnet-ссылке (источники с публичных трекеров). Перед использованием ссылки прочтите, пожалуйста Пользовательское соглашение, а также как можно дольше оставайтесь на раздаче! Для того, чтобы скачать сам торрент-файл (который видит больше источников), а также для того, чтобы поблагодарить релизера, вам необходимо зарегистрироваться. Если регистрироваться лень - вы можете также попробовать скачать релиз по нашим партнерским ссылкам ниже.

[underverse.su].t57949.torrent
Трекер: Зарегистрирован   [ 07.09.2015 11:02 ]  

Статус: проверено (by makkol at 08.09.2015 12:15)
Поблагодарили: 1 человек
Тип торрента: публичный - доступные источники с открытых трекеров: 
Размер: 1,46 GB (занимает 0,33 DVDR, для записи нужно 1 болванка DVDR/RW)
 
 
Похожие темы
Форум Тема Автор Торрент Отв. Посл. сооб.
Зарубежное кино [HDDVDRip / BDRip / WEB-DL / HDTV 1080/720р] Золотые угри / Zlati uhori / Golden Eels (Карел Кахиня) [1979 г., драма, HDTVRip 720p] VO + Original + Subs makkol
1 | 0

0 | 999

0

07.09.2015 11:18


Яндекс.Метрика powered by Sphinx


В Н И М А Н И Е
Сайт не распространяет и не хранит электронные версии произведений, а лишь бесплатно и без коммерческой выгоды (не требуя взамен платы,
SMS и т.д.) предоставляет доступ к создаваемому пользователями каталогу ссылок на торрент-файлы, которые содержат только списки хеш-сумм.
Убедительная просьба с жалобами обращаться напрямую к пользователю, разместившему торрент файл.

Вверх