Loading...
Error

Фарго / Fargo / Сезон 1 (1-10 серии из 10) (Рэндолл Айнхорн, Адам Бернштейн, Колин Бакси) [2014 г., триллер, драма, криминал, BDRip] MVO + Original

Статистика раздачи
Размер:  8,54 GB   |    Зарегистрирован:  1 год 2 месяца   |    Скачан:  16 раз
Сидов:  1  |  5 KB/s  ]   Личеров:  0  |  0 KB/s  ]

* - сиды/пиры с внешних источников

   
 
Автор Сообщение

older Пол:Муж

07-Сен-2015 10:48

Фарго / Fargo / Сезон 1 (1-10 серии из 10)


Год выпуска: 2014
Жанр: триллер, драма, криминал
Страна: США
Режиссер: Рэндолл Айнхорн, Адам Бернштейн, Колин Бакси
В ролях: Мартин Фриман, Билли Боб Торнтон, Боб Оденкерк, Джули Энн Эмери, Колин Хэнкс, Джои Кинг, Оливер Платт, Кейт Уолш, Джошуа Клоуз, Спенсер Древер
Сюжет фильма:
В центре сюжета — страховой агент Лестер Нигард (Мартин Фриман), который влачит свое сонное существование, выполняя нудную работу для скучных людей. Внезапно судьба сводит его с Лорном Малво (Билли Боб Торнтон) — странным бродягой, уже успевшим заработать себе репутацию жестокого и опасного человека. Именно через призму взаимоотношений этих столь разных персонажей создатели сериала расскажут историю, щедро сдобренную неповторимым черным юмором. Однако на этой необычной парочке свет клином не сходится. Куда интереснее будет узнать, какое отношение они имеют к череде нескольких дерзких преступлений, захлестнувших тихий городок Фарго.
Сериал снят по мотивам знаменитого фильма братьев Коэнов "Фарго" 1995 г.

Качество видео: BDRip

Продолжительность: ~ 01:09:00
Формат: AVI
Видео: XviD, 720х400, 1402 kbps
Аудио #1: русский, многоголосый закадровый [профессиональный], AC3 5.1, 384 kbps - LostFilm
Аудио #2: английский, оригинал, AC3 5.1, 384 kbps
Субтитры #1: тип: внешние, русский, формат: SRT
Субтитры #2: тип: внешние, английский, формат: SRT
01: The Crocodile's Dilemma / Дилемма крокодила
02: The Rooster Prince / Принц-петух
03: A Muddy Road / Грязное дельце
04: Eating the Blame / Съедая улику
05: The Six Ungraspables / Шесть непостижимых
06: Buridan's Ass / Буриданов осёл
07: Who Shaves the Barber? / Кто стрижёт парикмахера?
08: The Heap / Завал
09: A Fox, a Rabbit, and a Cabbage / Лисица, заяц и капуста
10: Morton's Fork / Вилка Мортона

Код:

Общее
Полное имя                               : \Fargo (S01) LostFilm DD5.1\Fargo.s01e01.XviD.BDrip.DD5.1.LostFilm.[qqss44].avi
Формат                                   : AVI
Формат/Информация                        : Audio Video Interleave
Размер файла                             : 1,07 Гбайт
Продолжительность                        : 1 ч. 9 м.
Общий поток                              : 2184 Кбит/сек
Программа кодирования                    : VirtualDubMod 1.5.10.3 | www.virtualdub-fr.org || (build 2550/release)
Библиотека кодирования                   : VirtualDubMod build 2550/release

Видео
Идентификатор                            : 0
Формат                                   : MPEG-4 Visual
Профиль формата                          : Advanced Simple@L5
Параметр BVOP формата                    : 2
Параметр QPel формата                    : Нет
Параметр GMC формата                     : Без точки перехода
Параметр матрицы формата                 : Default (MPEG)
Идентификатор кодека                     : XVID
Идентификатор кодека/Подсказка           : XviD
Продолжительность                        : 1 ч. 9 м.
Битрейт                                  : 1402 Кбит/сек
Ширина                                   : 720 пикселей
Высота                                   : 400 пикселей
Соотношение сторон                       : 16:9
Частота кадров                           : 23,976 кадра/сек
Цветовое пространство                    : YUV
Субдискретизация насыщенности            : 4:2:0
Битовая глубина                          : 8 бит
Тип развёртки                            : Прогрессивная
Метод сжатия                             : С потерями
Бит/(Пиксели*Кадры)                      : 0.203
Размер потока                            : 701 Мбайт (64%)
Библиотека кодирования                   : XviD 73

Аудио #1
Идентификатор                            : 1
Формат                                   : AC-3
Формат/Информация                        : Audio Coding 3
Расширение режима                        : CM (complete main)
Параметр Endianness формата              : Big
Идентификатор кодека                     : 2000
Продолжительность                        : 1 ч. 9 м.
Вид битрейта                             : Постоянный
Битрейт                                  : 384 Кбит/сек
Каналы                                   : 6 каналов
Расположение каналов                     : Front: L C R, Side: L R, LFE
Частота                                  : 48,0 КГц
Битовая глубина                          : 16 бит
Метод сжатия                             : С потерями
Размер потока                            : 192 Мбайт (18%)
Выравнивание                             : Разделение по промежуткам
Продолжительность промежутка             : 42  мс. (1,00 видеокадр)
Время предзагрузки промежутка            : 500  мс.

Аудио #2
Идентификатор                            : 2
Формат                                   : AC-3
Формат/Информация                        : Audio Coding 3
Расширение режима                        : CM (complete main)
Параметр Endianness формата              : Big
Идентификатор кодека                     : 2000
Продолжительность                        : 1 ч. 9 м.
Вид битрейта                             : Постоянный
Битрейт                                  : 384 Кбит/сек
Каналы                                   : 6 каналов
Расположение каналов                     : Front: L C R, Side: L R, LFE
Частота                                  : 48,0 КГц
Битовая глубина                          : 16 бит
Метод сжатия                             : С потерями
Размер потока                            : 192 Мбайт (18%)
Выравнивание                             : Разделение по промежуткам
Продолжительность промежутка             : 42  мс. (1,00 видеокадр)
Время предзагрузки промежутка            : 500  мс.

Озвучка: LostFilm 5.1 - s_white
Рип: синхронизация звука и субтитров - qqss44
Семпл:

Релиз группы:

picpicpicpicpic
Для увеличения картинки щелкните мышкой по превью

Этот торрент недоступен для скачивания без регистрации, однако доступен по публичной magnet-ссылке (источники с публичных трекеров). Перед использованием ссылки прочтите, пожалуйста Пользовательское соглашение, а также как можно дольше оставайтесь на раздаче! Для того, чтобы скачать сам торрент-файл (который видит больше источников), а также для того, чтобы поблагодарить релизера, вам необходимо зарегистрироваться. Если регистрироваться лень - вы можете также попробовать скачать релиз по нашим партнерским ссылкам ниже.

[underverse.su].t57947.torrent
Трекер: Зарегистрирован   [ 07.09.2015 10:48 ]  

Статус: проверено (by makkol at 07.09.2015 11:47)
Поблагодарили: 2 человека
Тип торрента: публичный - доступные источники с открытых трекеров: 
Размер: 8,54 GB (занимает 1,95 DVDR, для записи нужно 2 болванки DVDR/RW)
 
 
Похожие темы
Форум Тема Автор Торрент Отв. Посл. сооб.
Зарубежное кино [DVDRip, Low-Res HDRip, и т.д.] Фарго / Fargo (Джоэл Коэн / Joel Coen, Итэн Коэн / Ethan Coen) [1995 г., триллер, драма, криминал, HDRip] MVO (НТВ) 90ytr90
27 | 1

1 | 506

29

04.10.2015 16:01

T Зарубежные сериалы Фарго / Fargo / Сезон 2 / (1-9 серии из 10) (Рэндолл Айнхорн, Адам Бернштейн, Колин Бакси) [2015 г., триллер, драма, криминал, WEB-DLRip] MVO + Original older
49 | 27

7 | 1310

6

11.12.2015 11:46

T Зарубежные сериалы Фарго / Fargo / Сезон 2 (1-6 серий из 10) (Мэтт Шекман, Скотт Уинант, Адам Бернштейн) [2015 г., Драма, криминал, WEB-DLRip] DVO (Кубик в Кубе) + Original ultarasbarcelona
6 | 0

0 | 469

2

23.11.2015 12:09


Яндекс.Метрика powered by Sphinx


В Н И М А Н И Е
Сайт не распространяет и не хранит электронные версии произведений, а лишь бесплатно и без коммерческой выгоды (не требуя взамен платы,
SMS и т.д.) предоставляет доступ к создаваемому пользователями каталогу ссылок на торрент-файлы, которые содержат только списки хеш-сумм.
Убедительная просьба с жалобами обращаться напрямую к пользователю, разместившему торрент файл.

Вверх