Loading...
Error

Шёпот / The Whispers / Сезон 1 (1-13 серии из 13) (Чарльз Бисон, П.Дж. Пеше, Брэд Тернер) [2015 г., фантастика, драма, детектив, WEB-DLRip] MVO (NewStudio) + Original

Статистика раздачи
Размер:  6,98 GB   |    Зарегистрирован:  1 год 3 месяца   |    Скачан:  6 раз

Полного источника не было: 3 месяца 12 дней

Сидов:  0  |  0 KB/s  ]   Личеров:  0  |  0 KB/s  ]

* - сиды/пиры с внешних источников

   
 
Автор Сообщение

older Пол:Муж

07-Сен-2015 08:32

Шёпот / The Whispers / Сезон 1 (1-13 серии из 13)


Год выпуска: 2015
Жанр: фантастика, драма, детектив
Страна: США
Режиссер: Чарльз Бисон, П.Дж. Пеше, Брэд Тернер
В ролях: Тейт Бёрчмор, Бэрри Слоун, Лили Рэйб, Кайли Роджерс, Кайл Харрисон Брейткопф, Дэвид Эндрюс, Эбби Райдер Фортсон, Джеймисон Джонс, Майло Вентимилья
Сюжет фильма:
В центре сюжета находится агент ФБР Клэр Бенниган, расследующая дело шестилетней девочки, которая чуть не убила свою мать, в ходе чего история приобретает неожиданный поворот — Клэр узнает о существовании неведомой силы, манипулирующей детьми…

Качество видео: WEB-DLRip

Продолжительность: ~ 00:42:00
Формат: AVI
Видео: XviD, 720х400, 1552 kbps
Аудио #1: русский, многоголосый закадровый [профессиональный], MP3 2.0, 128 kbps
Аудио #2: английский, оригинал, MP3 2.0, 128 kbps

Код:

Общее
Полное имя                               : \The.Whispers.s01.WEBDLRip.NewStudio\The.Whispers.s01e01.WEBDLRip.*другой трекер*.avi
Формат                                   : AVI
Формат/Информация                        : Audio Video Interleave
Размер файла                             : 550 Мбайт
Продолжительность                        : 42 м.
Общий поток                              : 1822 Кбит/сек
Программа кодирования                    : VirtualDubMod 1.5.10.2 (build 2540/release)
Библиотека кодирования                   : VirtualDubMod build 2540/release

Видео
Идентификатор                            : 0
Формат                                   : MPEG-4 Visual
Профиль формата                          : Advanced Simple@L5
Параметр BVOP формата                    : 2
Параметр QPel формата                    : Нет
Параметр GMC формата                     : Без точки перехода
Параметр матрицы формата                 : Default (MPEG)
Идентификатор кодека                     : XVID
Идентификатор кодека/Подсказка           : XviD
Продолжительность                        : 42 м.
Битрейт                                  : 1552 Кбит/сек
Ширина                                   : 720 пикселей
Высота                                   : 400 пикселей
Соотношение сторон                       : 16:9
Частота кадров                           : 23,976 кадра/сек
Цветовое пространство                    : YUV
Субдискретизация насыщенности            : 4:2:0
Битовая глубина                          : 8 бит
Тип развёртки                            : Прогрессивная
Метод сжатия                             : С потерями
Бит/(Пиксели*Кадры)                      : 0.225
Размер потока                            : 469 Мбайт (85%)
Библиотека кодирования                   : XviD 64

Аудио #1
Идентификатор                            : 1
Формат                                   : MPEG Audio
Версия формата                           : Version 1
Профиль формата                          : Layer 3
Режим                                    : Joint stereo
Расширение режима                        : MS Stereo
Идентификатор кодека                     : 55
Идентификатор кодека/Подсказка           : MP3
Продолжительность                        : 42 м.
Вид битрейта                             : Постоянный
Битрейт                                  : 128 Кбит/сек
Каналы                                   : 2 канала
Частота                                  : 48,0 КГц
Метод сжатия                             : С потерями
Размер потока                            : 38,6 Мбайт (7%)
Выравнивание                             : Соединение по промежуткам
Продолжительность промежутка             : 42  мс. (1,00 видеокадр)
Время предзагрузки промежутка            : 504  мс.

Аудио #2
Идентификатор                            : 2
Формат                                   : MPEG Audio
Версия формата                           : Version 1
Профиль формата                          : Layer 3
Режим                                    : Joint stereo
Расширение режима                        : MS Stereo
Идентификатор кодека                     : 55
Идентификатор кодека/Подсказка           : MP3
Продолжительность                        : 42 м.
Вид битрейта                             : Постоянный
Битрейт                                  : 128 Кбит/сек
Каналы                                   : 2 канала
Частота                                  : 48,0 КГц
Метод сжатия                             : С потерями
Размер потока                            : 38,6 Мбайт (7%)
Выравнивание                             : Соединение по промежуткам
Продолжительность промежутка             : 42  мс. (1,00 видеокадр)
Время предзагрузки промежутка            : 504  мс.
Библиотека кодирования                   : LAME3.99r
Настройки программы                      : -m j -V 4 -q 2 -lowpass 17 -b 128

Семпл:

Релиз группы:

picpicpicpicpic
Для увеличения картинки щелкните мышкой по превью

Этот торрент недоступен для скачивания без регистрации, однако доступен по публичной magnet-ссылке (источники с публичных трекеров). Перед использованием ссылки прочтите, пожалуйста Пользовательское соглашение, а также как можно дольше оставайтесь на раздаче! Для того, чтобы скачать сам торрент-файл (который видит больше источников), а также для того, чтобы поблагодарить релизера, вам необходимо зарегистрироваться. Если регистрироваться лень - вы можете также попробовать скачать релиз по нашим партнерским ссылкам ниже.

[underverse.su].t57943.torrent
Трекер: Зарегистрирован   [ 07.09.2015 08:32 ]  

Статус: проверено (by makkol at 07.09.2015 11:55)
Поблагодарили: 2 человека
Тип торрента: публичный - доступные источники с открытых трекеров: 
Размер: 6,98 GB (занимает 1,59 DVDR, для записи нужно 2 болванки DVDR/RW)
 
 
Похожие темы
Форум Тема Автор Торрент Отв. Посл. сооб.
T Зарубежные сериалы Шёпот / The Whispers / Сезон 1 (1-11 серии из 13) (Чарльз Бисон, П.Дж. Пеше, Брэд Тернер) [2015 г., фантастика, драма, детектив, WEB-DLRip] MVO (LostFilm) older
0 | 1

1 | 12150

3

20.08.2015 09:06

Зарубежные сериалы [BD / Remux / BDRip / WEB-DL / HDTV 1080/720р] Шёпот / The Whispers (Сезон 1, серии 1-13 из 13) (Чарльз Бисон, П.Дж. Пеше, Холли Дэйл) [2015 г., фантастика, драма, WEB-DL 720p] MVO (LostFilm) K7SoLoN
0 | 0

1 | 11923

1

07.09.2015 12:00



Последний раз редактировалось: older (07.09.2015 11:13), всего редактировалось 2 раз(а)

K7SoLoN Пол:Муж

07-Сен-2015 11:58

:good:

Яндекс.Метрика powered by Sphinx


В Н И М А Н И Е
Сайт не распространяет и не хранит электронные версии произведений, а лишь бесплатно и без коммерческой выгоды (не требуя взамен платы,
SMS и т.д.) предоставляет доступ к создаваемому пользователями каталогу ссылок на торрент-файлы, которые содержат только списки хеш-сумм.
Убедительная просьба с жалобами обращаться напрямую к пользователю, разместившему торрент файл.

Вверх