Loading...
Error

Кукла Роберт / Robert the Doll (Эндрю Джонс) [2015 г., ужасы, DVDRip] AVO + Original

Статистика раздачи
Размер:  1,45 GB   |    Зарегистрирован:  1 год 2 месяца   |    Скачан:  17 раз

Полного источника не было: 3 месяца 6 дней

Сидов:  0  |  0 KB/s  ]   Личеров:  0  |  0 KB/s  ]

* - сиды/пиры с внешних источников

   
 
Автор Сообщение

makkol Пол:Муж

06-Сен-2015 22:23

Кукла Роберт / Robert the Doll


Год выпуска: 2015
Жанр: ужасы
Производство: Великобритания [Masterplan Film Productions]
Режиссер: Эндрю Джонс
В ролях: Ли Бэйн, Мэган Локхёрст, Сид Касадос, Сюзи Фрэнсис Гартон, Флинн Аллен, Джудит Хейли, Самюэль Хатчинсон, Энни Дэвис
Сюжет фильма:
Паулу и Джейн пришлось рассчитать свою стареющую экономку Агату, которая становилась все более забывчивая и злобная. Недовольная старуха перед отъездом подарила сыну бывших хозяев куклу, которую зовут Роберт.
- Если ты будешь ему другом, - сказала она мальчику, - он будет другом тебе.
После ее отъезда в доме начинают происходить необъяснимые вещи. Кто-то портит мебель, разбивает посуду, уничтожает картину, над которой работала Джейн… Да еще и по ночам раздается злобный смех, источник которого найти не могут. Только их сын Джин утверждает, что виновна во всем этом кукла, но ему никто не верит. Кукла же совсем слетает с катушек - она начинает убивать…

  • Мировая премьера: 24 августа 2015


Качество видео: DVDRip

Продолжительность: 01:30:29
Формат: AVI
Видео: XviD, 720x288, 25.000 fps, 1383 kbps
Аудио #1: русский, авторский одноголосый закадровый (Андрей Дольский), AC3 5.1, 48 kHz, 448 kbps
Аудио #2: английский, оригинал, AC3 5.1, 48 kHz, 448 kbps

Код:

Общее
Полное имя                               : Robert the Doll (2015) DVDRip.avi
Формат                                   : AVI
Формат/Информация                        : Audio Video Interleave
Профиль формата                          : OpenDML
Размер файла                             : 1,45 Гбайт
Продолжительность                        : 1 ч. 30 м.
Общий поток                              : 2298 Кбит/сек
Программа кодирования                    : XviD4PSP 6.0 / 54.29.105

Видео
Идентификатор                            : 0
Формат                                   : xvid
Идентификатор кодека                     : xvid
Продолжительность                        : 1 ч. 30 м.
Битрейт                                  : 1383 Кбит/сек
Ширина                                   : 720 пикселей
Высота                                   : 288 пикселей
Соотношение сторон                       : 2,500
Частота кадров                           : 25,000 кадров/сек
Бит/(Пиксели*Кадры)                      : 0.267
Размер потока                            : 895 Мбайт (60%)

Аудио #1
Идентификатор                            : 1
Формат                                   : AC-3
Формат/Информация                        : Audio Coding 3
Расширение режима                        : CM (complete main)
Параметр Endianness формата              : Big
Идентификатор кодека                     : 2000
Продолжительность                        : 1 ч. 30 м.
Вид битрейта                             : Постоянный
Битрейт                                  : 448 Кбит/сек
Каналы                                   : 6 каналов
Расположение каналов                     : Front: L C R, Side: L R, LFE
Частота                                  : 48,0 КГц
Битовая глубина                          : 16 бит
Метод сжатия                             : С потерями
Размер потока                            : 290 Мбайт (19%)
Выравнивание                             : Соединение по промежуткам
Продолжительность промежутка             : 32  мс. (0,80 видеокадр)

Аудио #2
Идентификатор                            : 2
Формат                                   : AC-3
Формат/Информация                        : Audio Coding 3
Расширение режима                        : CM (complete main)
Параметр Endianness формата              : Big
Идентификатор кодека                     : 2000
Продолжительность                        : 1 ч. 30 м.
Вид битрейта                             : Постоянный
Битрейт                                  : 448 Кбит/сек
Каналы                                   : 6 каналов
Расположение каналов                     : Front: L C R, Side: L R, LFE
Частота                                  : 48,0 КГц
Битовая глубина                          : 16 бит
Метод сжатия                             : С потерями
Размер потока                            : 290 Мбайт (19%)
Выравнивание                             : Соединение по промежуткам
Продолжительность промежутка             : 32  мс. (0,80 видеокадр)
picpicpicpicpic
Для увеличения картинки щелкните мышкой по превью

Этот торрент недоступен для скачивания без регистрации, однако доступен по публичной magnet-ссылке (источники с публичных трекеров). Перед использованием ссылки прочтите, пожалуйста Пользовательское соглашение, а также как можно дольше оставайтесь на раздаче! Для того, чтобы скачать сам торрент-файл (который видит больше источников), а также для того, чтобы поблагодарить релизера, вам необходимо зарегистрироваться. Если регистрироваться лень - вы можете также попробовать скачать релиз по нашим партнерским ссылкам ниже.

[underverse.su].t57930.torrent
Трекер: Зарегистрирован   [ 06.09.2015 22:23 ]  

Статус: проверено (by makkol at 08.09.2015 12:10)
Поблагодарили: пока никто не поблагодарил...
Тип торрента: публичный - доступные источники с открытых трекеров: 
Размер: 1,45 GB (занимает 1/3 DVDR, для записи нужно 1 болванка DVDR/RW)
 
 

Яндекс.Метрика powered by Sphinx


В Н И М А Н И Е
Сайт не распространяет и не хранит электронные версии произведений, а лишь бесплатно и без коммерческой выгоды (не требуя взамен платы,
SMS и т.д.) предоставляет доступ к создаваемому пользователями каталогу ссылок на торрент-файлы, которые содержат только списки хеш-сумм.
Убедительная просьба с жалобами обращаться напрямую к пользователю, разместившему торрент файл.

Вверх