Loading...
Error

Лиллехаммер / Lilyhammer / Сезоны 1-2 (1-16 серии из 16) (Гер Хеннинг Хопланд, Симен Альсвик, Ёйстейн Карлсен) [2012-2013 г., драма, комедия, криминал, BDRip] MVO (АРК-ТВ)

Статистика раздачи
Размер:  7,23 GB   |    Зарегистрирован:  1 год 3 месяца   |    Скачан:  16 раз

Полного источника не было: 11 часов

Сидов:  0  |  0 KB/s  ]   Личеров:  0  |  0 KB/s  ]

* - сиды/пиры с внешних источников

   
 
Автор Сообщение

older Пол:Муж

06-Сен-2015 04:29

Лиллехаммер / Lilyhammer / Сезоны 1-2 (1-16 серии из 16)


Год выпуска: 2012-2013
Жанр: драма, комедия, криминал
Страна: США , Норвегия
Режиссер: Гер Хеннинг Хопланд, Симен Альсвик, Ёйстейн Карлсен
В ролях: Стив Ван Зандт, Мариан Саастад Оттесен, Тронд Фауса Аурвааг, Энн Кригсволл, Стейнар Саген, Микаэль Акснес-Персон, Свен Нордин, Фридтьов Сохейм, Кюрре Хеллум, Томми Карлсен
Сюжет фильма:
Тальяно сдал своего босса федералам, и теперь, в рамках программы по защите свидетелей, он переезжает в Лиллехаммер, небольшой норвежский городок, когда-то приютивший зимние олимпийские игры. Сам Фрэнк называет его Лилихэммером, отсюда и название сериала. Фрэнк мечтает о рае с «чистым воздухом, белым снегом и клевыми телками», вдали от соблазнов Нью-Йорка и от карателей мафии. Реальность, конечно же, оказывается не такой, как мечты.

Качество видео: BDRip

Продолжительность: ~ 00:45:00
Формат: AVI
Видео: XviD, 720х400, 1300 kbps
Аудио: русский, многоголосый закадровый [профессиональный], MP3 2.0, 128 kbps, - АРК-ТВ

Код:

Общее
Полное имя                               : \Lilyhammer\Lilyhammer.s01.e01.BDRip.avi
Формат                                   : AVI
Формат/Информация                        : Audio Video Interleave
Размер файла                             : 465 Мбайт
Продолжительность                        : 45 м.
Общий поток                              : 1438 Кбит/сек
Программа кодирования                    : VirtualDubMod 1.5.10.2 (build 2540/release)
Библиотека кодирования                   : VirtualDubMod build 2540/release

Видео
Идентификатор                            : 0
Формат                                   : MPEG-4 Visual
Профиль формата                          : Advanced Simple@L5
Параметр BVOP формата                    : 1
Параметр QPel формата                    : Нет
Параметр GMC формата                     : Без точки перехода
Параметр матрицы формата                 : Default (MPEG)
Идентификатор кодека                     : XVID
Идентификатор кодека/Подсказка           : XviD
Продолжительность                        : 45 м.
Битрейт                                  : 1300 Кбит/сек
Ширина                                   : 720 пикселей
Высота                                   : 400 пикселей
Соотношение сторон                       : 16:9
Частота кадров                           : 25,000 кадров/сек
Цветовое пространство                    : YUV
Субдискретизация насыщенности            : 4:2:0
Битовая глубина                          : 8 бит
Тип развёртки                            : Прогрессивная
Метод сжатия                             : С потерями
Бит/(Пиксели*Кадры)                      : 0.181
Размер потока                            : 420 Мбайт (90%)
Библиотека кодирования                   : XviD 1.2.1 (UTC 2008-12-04)

Аудио
Идентификатор                            : 1
Формат                                   : MPEG Audio
Версия формата                           : Version 1
Профиль формата                          : Layer 3
Идентификатор кодека                     : 55
Идентификатор кодека/Подсказка           : MP3
Продолжительность                        : 45 м.
Вид битрейта                             : Постоянный
Битрейт                                  : 128 Кбит/сек
Каналы                                   : 2 канала
Частота                                  : 48,0 КГц
Метод сжатия                             : С потерями
Размер потока                            : 41,4 Мбайт (9%)
Выравнивание                             : Соединение по промежуткам
Продолжительность промежутка             : 40  мс. (1,00 видеокадр)
Время предзагрузки промежутка            : 504  мс.
Библиотека кодирования                   : LAME3.98r
Настройки программы                      : -m s -V 4 -q 2 -lowpass 17 -b 128

picpicpicpicpic
Для увеличения картинки щелкните мышкой по превью

Этот торрент недоступен для скачивания без регистрации, однако доступен по публичной magnet-ссылке (источники с публичных трекеров). Перед использованием ссылки прочтите, пожалуйста Пользовательское соглашение, а также как можно дольше оставайтесь на раздаче! Для того, чтобы скачать сам торрент-файл (который видит больше источников), а также для того, чтобы поблагодарить релизера, вам необходимо зарегистрироваться. Если регистрироваться лень - вы можете также попробовать скачать релиз по нашим партнерским ссылкам ниже.

[underverse.su].t57909.torrent
Трекер: Зарегистрирован   [ 06.09.2015 04:29 ]  

Статус: проверено (by makkol at 06.09.2015 09:43)
Поблагодарили: 1 человек
Тип торрента: публичный - доступные источники с открытых трекеров: 
Размер: 7,23 GB (занимает 1,65 DVDR, для записи нужно 2 болванки DVDR/RW)
 
 
Похожие темы
Форум Тема Автор Торрент Отв. Посл. сооб.
Зарубежные сериалы Лиллехаммер / Lilyhammer / Серии 1-8 (8) (Симен Алсвик) [2012 г., комедия, драма, криминальный, WEBDLRip] AVO + Original Чертёнок
6 | 0

0 | 963

23

03.04.2013 12:48

Зарубежные сериалы Лиллехаммер / Lilyhammer / Сезон 3 (1-8 серии из 8) (Гер Хеннинг Хопланд, Симен Альсвик, Ёйстейн Карлсен) [2014 г., драма, комедия, криминал, HDTVRip] MVO (АРК-ТВ) + Original older
6 | 0

0 | 399

14

06.09.2015 05:03


Яндекс.Метрика powered by Sphinx


В Н И М А Н И Е
Сайт не распространяет и не хранит электронные версии произведений, а лишь бесплатно и без коммерческой выгоды (не требуя взамен платы,
SMS и т.д.) предоставляет доступ к создаваемому пользователями каталогу ссылок на торрент-файлы, которые содержат только списки хеш-сумм.
Убедительная просьба с жалобами обращаться напрямую к пользователю, разместившему торрент файл.

Вверх