Loading...
Error

Зерно правды / Ziarno prawdy (Борис Ланкош) [2015 г., детектив, триллер, DVDRip] DVO + Original + Subs

Статистика раздачи
Размер:  2,4 GB   |    Зарегистрирован:  1 год 9 месяцев   |    Скачан:  45 раз

Полного источника не было: 9 месяцев

Сидов:  0  |  0 KB/s  ]   Личеров:  0  |  0 KB/s  ]

* - сиды/пиры с внешних источников

   
 
Автор Сообщение

makkol Пол:Муж

05-Сен-2015 14:34

Зерно правды / Ziarno prawdy


Год выпуска: 2015
Жанр: детектив, триллер
Производство: Польша [Studio Rewers]
Режиссер: Борис Ланкош
В ролях: Роберт Венцкевич, Ежи Трела, Александра Хамкало, Магдалена Валах, Кшиштоф Печиньский, Ивона Бельская, Аркадиуш Якубик, Петр Гловацкий
Сюжет фильма:
Экранизация одноименного романа З. Милошевского. Прокурор Теодор Шацкий разводится с женой и уезжает из Варшавы в небольшой живописный городок на юго-востоке Польши - Сандомеж. Спустя некоторое время ему поручают расследование странного и таинственного дела, теснопереплетенного со средневековой легендой. Но в каждой легенде есть свое зерно правды...

  • Мировая премьера: 30 января 2015


Перевод: Professor
Озвучивание: Den904&DeadSno

Качество видео: DVDRip

Продолжительность: 01:46:12
Формат: AVI
Видео: XviD, 720x304 (2.35:1), 25.000 fps, 2320 kbps
Аудио #1: русский, любительский двухголосый закадровый, AC3 5.1, 48 kHz, 448 kbps
Аудио #2: польский, оригинал, AC3 5.1, 48 kHz, 448 kbps
Субтитры: русские внешние, SRT

Код:

Общее
Полное имя : Zerno.prawdy.2015.RU_PL.HQDVDRiP.XViD.AC3.avi
Формат : AVI
Формат/Информация : Audio Video Interleave
Размер файла : 2,40 Гбайт
Продолжительность : 1 ч. 46 м.
Общий поток : 3230 Кбит/сек

Видео
Идентификатор : 0
Формат : MPEG-4 Visual
Профиль формата : Advanced Simple@L5
Параметр BVOP формата : 2
Параметр QPel формата : Нет
Параметр GMC формата : Без точки перехода
Параметр матрицы формата : Default (H.263)
Режим смешивания : Сжатый битовый поток
Идентификатор кодека : XVID
Идентификатор кодека/Подсказка : XviD
Продолжительность : 1 ч. 46 м.
Битрейт : 2320 Кбит/сек
Ширина : 720 пикселей
Высота : 304 пикселя
Соотношение сторон : 2,35:1
Частота кадров : 25,000 кадров/сек
Цветовое пространство : YUV
Субдискретизация насыщенности : 4:2:0
Битовая глубина : 8 бит
Тип развёртки : Прогрессивная
Метод сжатия : С потерями
Бит/(Пиксели*Кадры) : 0.424
Размер потока : 1,72 Гбайт (72%)
Библиотека кодирования : XviD 65

Аудио #1
Идентификатор : 1
Формат : AC-3
Формат/Информация : Audio Coding 3
Расширение режима : CM (complete main)
Идентификатор кодека : 2000
Продолжительность : 1 ч. 46 м.
Source_Duration/String : 1 ч. 46 м.
Вид битрейта : Постоянный
Битрейт : 448 Кбит/сек
Каналы : 6 каналов
Расположение каналов : Front: L C R, Side: L R, LFE
Частота : 48,0 КГц
Битовая глубина : 16 бит
Метод сжатия : С потерями
Размер потока : 340 Мбайт (14%)
Выравнивание : Соединение по промежуткам
Продолжительность промежутка : 40 мс. (1,00 видеокадр)

Аудио #2
Идентификатор : 2
Формат : AC-3
Формат/Информация : Audio Coding 3
Расширение режима : CM (complete main)
Идентификатор кодека : 2000
Продолжительность : 1 ч. 46 м.
Source_Duration/String : 1 ч. 46 м.
Вид битрейта : Постоянный
Битрейт : 448 Кбит/сек
Каналы : 6 каналов
Расположение каналов : Front: L C R, Side: L R, LFE
Частота : 48,0 КГц
Битовая глубина : 16 бит
Метод сжатия : С потерями
Размер потока : 340 Мбайт (14%)
Выравнивание : Соединение по промежуткам
Продолжительность промежутка : 40 мс. (1,00 видеокадр)
picpicpicpicpic
Для увеличения картинки щелкните мышкой по превью

Этот торрент недоступен для скачивания без регистрации, однако доступен по публичной magnet-ссылке (источники с публичных трекеров). Перед использованием ссылки прочтите, пожалуйста Пользовательское соглашение, а также как можно дольше оставайтесь на раздаче! Для того, чтобы скачать сам торрент-файл (который видит больше источников), а также для того, чтобы поблагодарить релизера, вам необходимо зарегистрироваться. Если регистрироваться лень - вы можете также попробовать скачать релиз по нашим партнерским ссылкам ниже.

[underverse.su].t57897.torrent
Трекер: Зарегистрирован   [ 05.09.2015 14:34 ]  

Статус: проверено (by makkol at 08.09.2015 12:02)
Поблагодарили: 2 человека
Тип торрента: публичный - доступные источники с открытых трекеров: 
Размер: 2,4 GB (занимает 0,55 DVDR, для записи нужно 1 болванка DVDR/RW)
 
 

892 

05-Сен-2015 21:58

звука нет на KMPlaer

makkol Пол:Муж

05-Сен-2015 22:57

892 писал(а):

звука нет на KMPlaer
На разных торрентах этот рип скачали уже больше полутора тысяч человек, и нигде ни одного замечания на звук. Можете посмотреть или скачать сэмпл, всё со звуком. Так что проблема всё-таки у Вас. Посмотрите настройки плейера, попробуйте другой плейер.

Яндекс.Метрика powered by Sphinx


В Н И М А Н И Е
Сайт не распространяет и не хранит электронные версии произведений, а лишь бесплатно и без коммерческой выгоды (не требуя взамен платы,
SMS и т.д.) предоставляет доступ к создаваемому пользователями каталогу ссылок на торрент-файлы, которые содержат только списки хеш-сумм.
Убедительная просьба с жалобами обращаться напрямую к пользователю, разместившему торрент файл.

Вверх