Loading...
Error

Страшные сказки / Il racconto dei racconti (Маттео Гарроне) [2015 г., фэнтези, сказка, арт-хаус, DVDRip] VO

Статистика раздачи
Размер:  1,64 GB   |    Зарегистрирован:  1 год 2 месяца   |    Скачан:  123 раза

Полного источника не было: 2 дня 10 часов

Сидов:  0  |  0 KB/s  ]   Личеров:  0  |  0 KB/s  ]

* - сиды/пиры с внешних источников

   
 
Автор Сообщение

makkol Пол:Муж

05-Сен-2015 13:25

Страшные сказки / Il racconto dei racconti


Год выпуска: 2015
Жанр: фэнтези, сказка, арт-хаус
Производство: Италия , Франция , Великобритания [Archimede, Le Pacte, Rai Cinema]
Режиссер: Маттео Гарроне
В ролях: Сальма Хайек, Венсан Кассель, Тоби Джонс, Джон Си. Райли, Альба Рорвахер
Сюжет фильма:
Маги и волшебники, короли и королевы, красавицы-принцессы и страшилы-великаны населяют эту потрясающую готическую фантазию. Сластолюбивый Король Одинокого Утеса берет в жены прелестную деву, а она превращается в уродливую старуху. Отважный Король Долины Туманов отправляется на бой с драконом, поскольку волшебник предсказал, что королева понесет ребенка, если съест сердце дракона. Ну, а Король Диких Гор с любовью выращивает гигантскую блоху, а родную дочь без тени сожаления отдает в жены горному орку. За стенами величественных замков строятся коварные козни, даются безрассудные обеты, там страстно любят и жестоко убивают…

  • Мировая премьера: 14 мая 2015
  • Российская премьера: 10 сентября 2015


Качество видео: DVDRip

Продолжительность: 02:08:25
Формат: AVI
Видео: XviD, 720x304 (2.35:1), 25.000 fps, 1598 kbps
Аудио: русский, любительский одноголосый закадровый (Павел Морозов aka PashaUp), AC3 2.0, 48 kHz, 224 kbps

Код:

Общее
Полное имя                               : Tale.of.Tales.2015.avi
Формат                                   : AVI
Формат/Информация                        : Audio Video Interleave
Размер файла                             : 1,64 Гбайт
Продолжительность                        : 2 ч. 8 м.
Общий поток                              : 1832 Кбит/сек
Программа кодирования                    : VirtualDubMod 1.5.10.2 (build 2540/release)
Библиотека кодирования                   : VirtualDubMod build 2540/release

Видео
Идентификатор                            : 0
Формат                                   : MPEG-4 Visual
Профиль формата                          : Simple@L5
Параметр BVOP формата                    : Нет
Параметр QPel формата                    : Нет
Параметр GMC формата                     : Без точки перехода
Параметр матрицы формата                 : Default (H.263)
Идентификатор кодека                     : XVID
Идентификатор кодека/Подсказка           : XviD
Продолжительность                        : 2 ч. 8 м.
Битрейт                                  : 1598 Кбит/сек
Ширина                                   : 720 пикселей
Высота                                   : 304 пикселя
Соотношение сторон                       : 2,35:1
Частота кадров                           : 25,000 кадров/сек
Цветовое пространство                    : YUV
Субдискретизация насыщенности            : 4:2:0
Битовая глубина                          : 8 бит
Тип развёртки                            : Прогрессивная
Метод сжатия                             : С потерями
Бит/(Пиксели*Кадры)                      : 0.292
Размер потока                            : 1,43 Гбайт (87%)
Библиотека кодирования                   : Lavc56.20.100

Аудио
Идентификатор                            : 1
Формат                                   : AC-3
Формат/Информация                        : Audio Coding 3
Расширение режима                        : CM (complete main)
Параметр Endianness формата              : Big
Идентификатор кодека                     : 2000
Продолжительность                        : 2 ч. 8 м.
Вид битрейта                             : Постоянный
Битрейт                                  : 224 Кбит/сек
Каналы                                   : 2 канала
Расположение каналов                     : Front: L R
Частота                                  : 48,0 КГц
Метод сжатия                             : С потерями
Размер потока                            : 206 Мбайт (12%)
Выравнивание                             : Разделение по промежуткам
Продолжительность промежутка             : 40  мс. (1,00 видеокадр)
Время предзагрузки промежутка            : 500  мс.
Релиз от:

picpicpicpicpic
Для увеличения картинки щелкните мышкой по превью

Этот торрент недоступен для скачивания без регистрации, однако доступен по публичной magnet-ссылке (источники с публичных трекеров). Перед использованием ссылки прочтите, пожалуйста Пользовательское соглашение, а также как можно дольше оставайтесь на раздаче! Для того, чтобы скачать сам торрент-файл (который видит больше источников), а также для того, чтобы поблагодарить релизера, вам необходимо зарегистрироваться. Если регистрироваться лень - вы можете также попробовать скачать релиз по нашим партнерским ссылкам ниже.

[underverse.su].t57892.torrent
Трекер: Зарегистрирован   [ 05.09.2015 13:25 ]  

Статус: проверено (by makkol at 08.09.2015 11:57)
Поблагодарили: 5 человек
Тип торрента: публичный - доступные источники с открытых трекеров: 
Размер: 1,64 GB (занимает 0,38 DVDR, для записи нужно 1 болванка DVDR/RW)
 
 
Похожие темы
Форум Тема Автор Торрент Отв. Посл. сооб.
Зарубежное кино [DVDRip, Low-Res HDRip, и т.д.] Страшные сказки / Il racconto dei racconti (Маттео Гарроне / Matteo Garrone) [2015 г., ужасы, фэнтези, мелодрама, HDRip] AVO (Сербин) 90ytr90
21 | 0

0 | 443

2

13.09.2016 16:34

Зарубежное кино [DVDRip, Low-Res HDRip, и т.д.] Страшные сказки / Il racconto dei racconti (Маттео Гарроне / Matteo Garrone) [2015 г., ужасы, фэнтези, мелодрама, BDRip] Dub 90ytr90
60 | 0

0 | 450

4

13.09.2016 16:27

Зарубежное кино [DVDRip, Low-Res HDRip, и т.д.] Страшные сказки / Il racconto dei racconti (Маттео Гарроне / Matteo Garrone) [2015 г., ужасы, фэнтези, мелодрама, BDRip] Dub 90ytr90
75 | 2

0 | 481

10

13.09.2016 16:39

Зарубежные сериалы Страшные сказки / Penny Dreadful / Сезон 1 (1-8 серии) (8) (Джеймс Хоуз, Брайан Кирк, Хуан Антонио Байона) [2014 г., ужасы, драма, HDTVRip] MVO older
23 | 9

0 | 961

22

07.08.2015 22:01

Зарубежные сериалы Страшные сказки / Penny Dreadful / Сезон 2 (10 серий из 10) (Джеймс Хоуз, Брайан Кирк, Хуан Антонио Байона) [2015 г., ужасы, драма, HDTVRip] MVO older
9 | 1

0 | 843

16

07.08.2015 22:28

Зарубежное кино [HDDVDRip / BDRip / WEB-DL / HDTV 1080/720р] Страшные сказки / Il racconto dei racconti (Маттео Гарроне / Matteo Garrone) [2015 г., ужасы, фэнтези, мелодрама, BDRip 720p] Dub (Rus) + AVO (Сербин) + MVO (Ukr) + Original (Eng) + Sub (Rus, Eng,... 90ytr90
12 | 2

0 | 171

1

14.09.2016 19:54

Зарубежное кино [HDDVDRip / BDRip / WEB-DL / HDTV 1080/720р] Страшные сказки / Il racconto dei racconti (Маттео Гарроне / Matteo Garrone) [2015 г., ужасы, фэнтези, мелодрама, BDRip 1080p] Dub (Rus) + AVO (Сербин) + MVO (Ukr) + Original (Eng) + Sub (Rus, Eng,... 90ytr90
6 | 2

0 | 229

2

14.09.2016 20:05

Зарубежное кино [HDDVDRip / BDRip / WEB-DL / HDTV 1080/720р] Страшные сказки / Il racconto dei racconti (Маттео Гарроне / Matteo Garrone) [2015 г., ужасы, фэнтези, мелодрама, BDRip 720p] Dub + Original (Eng) + Sub (Rom, Rus, Eng, Ita) 90ytr90
17 | 0

0 | 443

2

13.09.2016 17:13

Зарубежное кино [HDDVDRip / BDRip / WEB-DL / HDTV 1080/720р] Страшные сказки / Il racconto dei racconti (Маттео Гарроне) [2015 г., фэнтези, сказка, арт-хаус, BDRip 1080p] VO (PashaUp) + Ita + Eng makkol
16 | 0

0 | 863

20

05.09.2015 14:07

Зарубежное кино [HDDVDRip / BDRip / WEB-DL / HDTV 1080/720р] Страшные сказки / Il racconto dei racconti (Маттео Гарроне) [2015 г., фэнтези, сказка, арт-хаус, BDRip 720p] VO + Original makkol
25 | 0

0 | 721

39

05.09.2015 13:36


Яндекс.Метрика powered by Sphinx


В Н И М А Н И Е
Сайт не распространяет и не хранит электронные версии произведений, а лишь бесплатно и без коммерческой выгоды (не требуя взамен платы,
SMS и т.д.) предоставляет доступ к создаваемому пользователями каталогу ссылок на торрент-файлы, которые содержат только списки хеш-сумм.
Убедительная просьба с жалобами обращаться напрямую к пользователю, разместившему торрент файл.

Вверх