Loading...
Error

Грейс и Фрэнки / Grace and Frankie / Сезон 1 (1-13 серии из 13) (Дин Паризо, Тим Киркби, Мигель Артета) [2015 г., комедия, WEBRip] MVO

Статистика раздачи
Размер:  4,5 GB   |    Зарегистрирован:  1 год 3 месяца   |    Скачан:  4 раза

Полного источника не было: 11 дней

Сидов:  0  |  0 KB/s  ]   Личеров:  0  |  0 KB/s  ]

* - сиды/пиры с внешних источников

   
 
Автор Сообщение

older Пол:Муж

05-Сен-2015 12:49

Грейс и Фрэнки / Grace and Frankie / Сезон 1 (1-13 серии из 13)


Год выпуска: 2015
Жанр: комедия
Страна: США
Режиссер: Дин Паризо, Тим Киркби, Мигель Артета
В ролях: Джейн Фонда, Лили Томлин, Сэм Уотерстон, Мартин Шин, Бруклин Декер, Итэн Эмбри, Джун Рафаэль, Барон Вон, Крэйг Т. Нельсон, Джофф Стульц и др.
Сюжет фильма:
Однажды за ужином в ресторане мужья объявили Грейс и Френки, что они теперь геи и хотят прожить остаток своих дней вместе и в законном браке. В тот момент жизнь дам рухнула, но оказалось, что это ещё не самое страшное испытание. Теперь им предстоит не только смириться с новым статусом своих семей, но и обрести поддержку и понимание друг в друге, что будет непросто и забавно, ведь двух более непохожих женщин трудно представить.

Качество видео: WEBRip

Продолжительность: ~ 00:35:00
Формат: AVI
Видео: XviD, 720x384, 1501 kbps
Аудио: русский, многоголосый закадровый [профессиональный], MP3 2.0, 192 kbps, - ViruseProject

Код:

Общее
Полное имя                               : \Grace.and.Frankie.S01.ViruseProject\Grace.and.Frankie.S01E01.ViruseProject.avi
Формат                                   : AVI
Формат/Информация                        : Audio Video Interleave
Размер файла                             : 428 Мбайт
Продолжительность                        : 35 м.
Общий поток                              : 1702 Кбит/сек
Программа кодирования                    : VirtualDubMod 1.5.10.2 (build 2540/release)
Библиотека кодирования                   : VirtualDubMod build 2540/release

Видео
Идентификатор                            : 0
Формат                                   : MPEG-4 Visual
Профиль формата                          : Advanced Simple@L5
Параметр BVOP формата                    : 2
Параметр QPel формата                    : Нет
Параметр GMC формата                     : Без точки перехода
Параметр матрицы формата                 : Default (H.263)
Режим смешивания                         : Сжатый битовый поток
Идентификатор кодека                     : XVID
Идентификатор кодека/Подсказка           : XviD
Продолжительность                        : 35 м.
Битрейт                                  : 1501 Кбит/сек
Ширина                                   : 720 пикселей
Высота                                   : 384 пикселя
Соотношение сторон                       : 1,85:1
Частота кадров                           : 23,976 кадра/сек
Цветовое пространство                    : YUV
Субдискретизация насыщенности            : 4:2:0
Битовая глубина                          : 8 бит
Тип развёртки                            : Прогрессивная
Метод сжатия                             : С потерями
Бит/(Пиксели*Кадры)                      : 0.226
Размер потока                            : 378 Мбайт (88%)
Библиотека кодирования                   : XviD 73

Аудио
Идентификатор                            : 1
Формат                                   : MPEG Audio
Версия формата                           : Version 1
Профиль формата                          : Layer 3
Режим                                    : Joint stereo
Расширение режима                        : MS Stereo
Идентификатор кодека                     : 55
Идентификатор кодека/Подсказка           : MP3
Продолжительность                        : 35 м.
Вид битрейта                             : Постоянный
Битрейт                                  : 192 Кбит/сек
Каналы                                   : 2 канала
Частота                                  : 48,0 КГц
Метод сжатия                             : С потерями
Размер потока                            : 48,3 Мбайт (11%)
Выравнивание                             : Соединение по промежуткам
Продолжительность промежутка             : 42  мс. (1,00 видеокадр)
Время предзагрузки промежутка            : 504  мс.

Семпл:

Релиз группы:

picpicpicpicpic
Для увеличения картинки щелкните мышкой по превью

Этот торрент недоступен для скачивания без регистрации, однако доступен по публичной magnet-ссылке (источники с публичных трекеров). Перед использованием ссылки прочтите, пожалуйста Пользовательское соглашение, а также как можно дольше оставайтесь на раздаче! Для того, чтобы скачать сам торрент-файл (который видит больше источников), а также для того, чтобы поблагодарить релизера, вам необходимо зарегистрироваться. Если регистрироваться лень - вы можете также попробовать скачать релиз по нашим партнерским ссылкам ниже.

[underverse.su].t57885.torrent
Трекер: Зарегистрирован   [ 05.09.2015 12:49 ]  

Статус: проверено (by makkol at 05.09.2015 14:37)
Поблагодарили: пока никто не поблагодарил...
Тип торрента: публичный - доступные источники с открытых трекеров: 
Размер: 4,5 GB (занимает 1,03 DVDR, для записи нужно 2 болванки DVDR/RW)
 
 

Яндекс.Метрика powered by Sphinx


В Н И М А Н И Е
Сайт не распространяет и не хранит электронные версии произведений, а лишь бесплатно и без коммерческой выгоды (не требуя взамен платы,
SMS и т.д.) предоставляет доступ к создаваемому пользователями каталогу ссылок на торрент-файлы, которые содержат только списки хеш-сумм.
Убедительная просьба с жалобами обращаться напрямую к пользователю, разместившему торрент файл.

Вверх