Loading...
Error

Наслаждение или боль / Pleasure or Pain (Залман Кинг) [2013 г., драма, триллер, HDRip] VO

Статистика раздачи
Размер:  1,45 GB   |    Зарегистрирован:  1 год 2 месяца   |    Скачан:  35 раз

Полного источника не было: 1 месяц 25 дней

Сидов:  0  |  0 KB/s  ]   Личеров:  0  |  0 KB/s  ]

* - сиды/пиры с внешних источников

   
 
Автор Сообщение

makkol Пол:Муж

05-Сен-2015 12:08

Наслаждение или боль / Pleasure or Pain


Год выпуска: 2013
Жанр: драма, триллер
Производство: США [Last Night Productions, The Zalman King Company, Visual Arts Entertainment Inc.]
Режиссер: Залман Кинг
В ролях: Дэвид Чисам, Ассаф Коэн, Карла ДеФранко, Луиз Гриффитс, Регина Гарбор, Генри Любатти, Виктор МакКэй, Анджоли Ниман
Сюжет фильма:
Заключительный полнометражный фильм Залмана Кинга "первосвященника эротического кино" (по версии журнала Premiere), Наслаждение или боль уносит аудиторию в одиссею Виктории. Фильм о молодом дизайнере украшений, которая впадает в страстный роман с состоятельным риелтором Джеком. Его чувственное обаяние завораживает Викторию. Она вскоре находит себя очарованной Джеком и неумолимо втянутой в мир удовольствий, отказаться от которого она не хочет или скорее всего уже не может. Но не всегда любовь это только наслаждение ...

  • Мировая премьера: 5 сентября 2013


Качество видео: HDRip

Продолжительность: 01:39:50
Формат: AVI
Видео: XviD, 720x400 (16:9), 23.976 fps, 1625 kbps
Аудио: русский, любительский одноголосый закадровый, AC3 5.1, 48 kHz, 448 kbps

Код:

Общее
Полное имя : Pleasure.or.pain.2013.PashaUp.HDRip.1400.ExKinoRay.avi
Формат : AVI
Формат/Информация : Audio Video Interleave
Размер файла : 1,45 Гбайт
Продолжительность : 1 ч. 39 м.
Общий поток : 2082 Кбит/сек
Программа кодирования : VirtualDubMod 1.5.10.2 (build 2540/release)
Библиотека кодирования : VirtualDubMod build 2540/release

Видео
Идентификатор : 0
Формат : MPEG-4 Visual
Профиль формата : Advanced Simple@L5
Параметр BVOP формата : 1
Параметр QPel формата : Нет
Параметр GMC формата : Без точки перехода
Параметр матрицы формата : Выборочная
Идентификатор кодека : XVID
Идентификатор кодека/Подсказка : XviD
Продолжительность : 1 ч. 39 м.
Битрейт : 1625 Кбит/сек
Ширина : 720 пикселей
Высота : 400 пикселей
Соотношение сторон : 16:9
Частота кадров : 23,976 кадра/сек
Цветовое пространство : YUV
Субдискретизация насыщенности : 4:2:0
Битовая глубина : 8 бит
Тип развёртки : Прогрессивная
Метод сжатия : С потерями
Бит/(Пиксели*Кадры) : 0.235
Размер потока : 1,13 Гбайт (78%)
Библиотека кодирования : XviD 73

Аудио
Идентификатор : 1
Формат : AC-3
Формат/Информация : Audio Coding 3
Расширение режима : CM (complete main)
Идентификатор кодека : 2000
Продолжительность : 1 ч. 39 м.
Вид битрейта : Постоянный
Битрейт : 448 Кбит/сек
Каналы : 6 каналов
Расположение каналов : Front: L C R, Side: L R, LFE
Частота : 48,0 КГц
Битовая глубина : 16 бит
Метод сжатия : С потерями
Размер потока : 320 Мбайт (22%)
Выравнивание : Разделение по промежуткам
Продолжительность промежутка : 42 мс. (1,00 видеокадр)
Время предзагрузки промежутка : 500 мс.
Rip by Enigma
Перевод и описание к фильму: Enigma
Озвучивание: Павел Морозов aka PashaUp
Сведение звука: Sergei7721
Релиз группа:
picpicpicpicpic
Для увеличения картинки щелкните мышкой по превью

Этот торрент недоступен для скачивания без регистрации, однако доступен по публичной magnet-ссылке (источники с публичных трекеров). Перед использованием ссылки прочтите, пожалуйста Пользовательское соглашение, а также как можно дольше оставайтесь на раздаче! Для того, чтобы скачать сам торрент-файл (который видит больше источников), а также для того, чтобы поблагодарить релизера, вам необходимо зарегистрироваться. Если регистрироваться лень - вы можете также попробовать скачать релиз по нашим партнерским ссылкам ниже.

[underverse.su].t57884.torrent
Трекер: Зарегистрирован   [ 05.09.2015 12:08 ]  

Статус: проверено (by makkol at 08.09.2015 11:52)
Поблагодарили: 1 человек
Тип торрента: публичный - доступные источники с открытых трекеров: 
Размер: 1,45 GB (занимает 1/3 DVDR, для записи нужно 1 болванка DVDR/RW)
 
 
Похожие темы
Форум Тема Автор Торрент Отв. Посл. сооб.
Зарубежное кино [HDDVDRip / BDRip / WEB-DL / HDTV 1080/720р] Наслаждение или боль / Pleasure or Pain (Залман Кинг) [2013 г., драма, триллер, BDRip 720p] VO + Original makkol
12 | 0

0 | 392

15

05.09.2015 12:52

Зарубежное кино [HDDVDRip / BDRip / WEB-DL / HDTV 1080/720р] Наслаждение или боль / Pleasure or Pain (Залман Кинг) [2013 г., драма, триллер, BDRip 1080p] VO + Original + Subs (Eng) makkol
6 | 0

0 | 444

11

05.09.2015 13:04


Яндекс.Метрика powered by Sphinx


В Н И М А Н И Е
Сайт не распространяет и не хранит электронные версии произведений, а лишь бесплатно и без коммерческой выгоды (не требуя взамен платы,
SMS и т.д.) предоставляет доступ к создаваемому пользователями каталогу ссылок на торрент-файлы, которые содержат только списки хеш-сумм.
Убедительная просьба с жалобами обращаться напрямую к пользователю, разместившему торрент файл.

Вверх