Loading...
Error

Тьма была ночью / Dark Was the Night (Джек Хеллер) [2014 г., ужасы, триллер, драма, HDRip] MVO

Статистика раздачи
Размер:  1,46 GB   |    Зарегистрирован:  1 год 2 месяца   |    Скачан:  16 раз

Полного источника не было: 6 месяцев

Сидов:  0  |  0 KB/s  ]   Личеров:  0  |  0 KB/s  ]

* - сиды/пиры с внешних источников

   
 
Автор Сообщение

makkol Пол:Муж

05-Сен-2015 11:50

Тьма была ночью / Dark Was the Night


Год выпуска: 2014
Жанр: ужасы, триллер, драма
Производство: США [Caliber Media Company, Foggy Bottom Pictures]
Режиссер: Джек Хеллер
В ролях: Кевин Дюран, Лукас Хаас, Стив Эйджи, Ник Дамичи, Хит Фриман, Сабина Гадеки, Сет Хендрикс, Бьянка Кэйлик, Ethan Khusidman, Джозеф Паллистер
Сюжет фильма:
Вырубка леса в захолустном местечке Мейден-Вудс приводит к нарушению природного баланса и пробуждению древнего зла. В схватку за жизни местных жителей вступают отважный шериф и его верный помощник.

  • Мировая премьера: 16 октября 2014


Качество видео: HDRip

Продолжительность: 01:38:32
Формат: AVI
Видео: XviD, 720x304 (2.35:1), 23.976 fps, 1727 kbps
Аудио: русский, любительский многоголосый закадровый, AC3 5.1, 48 kHz, 384 kbps

Код:

Общее
Полное имя : Ho4.byla.temHa.2014.L.HDRip.avi
Формат : AVI
Формат/Информация : Audio Video Interleave
Размер файла : 1,46 Гбайт
Продолжительность : 1 ч. 38 м.
Общий поток : 2122 Кбит/сек
Программа кодирования : VirtualDubMod 1.5.10.2 (build 2540/release)
Библиотека кодирования : VirtualDubMod build 2540/release

Видео
Идентификатор : 0
Формат : MPEG-4 Visual
Профиль формата : Advanced Simple@L5
Параметр BVOP формата : 2
Параметр QPel формата : Нет
Параметр GMC формата : Без точки перехода
Параметр матрицы формата : Выборочная
Идентификатор кодека : XVID
Идентификатор кодека/Подсказка : XviD
Продолжительность : 1 ч. 38 м.
Битрейт : 1729 Кбит/сек
Ширина : 720 пикселей
Высота : 304 пикселя
Соотношение сторон : 2,35:1
Частота кадров : 23,976 кадра/сек
Цветовое пространство : YUV
Субдискретизация насыщенности : 4:2:0
Битовая глубина : 8 бит
Тип развёртки : Прогрессивная
Метод сжатия : С потерями
Бит/(Пиксели*Кадры) : 0.329
Размер потока : 1,19 Гбайт (81%)
Библиотека кодирования : XviD 1.2.1 (UTC 2008-12-04)

Аудио
Идентификатор : 1
Формат : AC-3
Формат/Информация : Audio Coding 3
Расширение режима : CM (complete main)
Идентификатор кодека : 2000
Продолжительность : 1 ч. 38 м.
Вид битрейта : Постоянный
Битрейт : 384 Кбит/сек
Каналы : 6 каналов
Расположение каналов : Front: L C R, Side: L R, LFE
Частота : 48,0 КГц
Битовая глубина : 16 бит
Метод сжатия : С потерями
Размер потока : 271 Мбайт (18%)
Выравнивание : Разделение по промежуткам
Продолжительность промежутка : 42 мс. (1,00 видеокадр)
Время предзагрузки промежутка : 500 мс.
Перевод: Antonio
Озвучивание: Многоголосое закадровое Scarlet Heaven Studio по заказу Serial-Centr
Релиз группа:
picpicpicpicpic
Для увеличения картинки щелкните мышкой по превью

Этот торрент недоступен для скачивания без регистрации, однако доступен по публичной magnet-ссылке (источники с публичных трекеров). Перед использованием ссылки прочтите, пожалуйста Пользовательское соглашение, а также как можно дольше оставайтесь на раздаче! Для того, чтобы скачать сам торрент-файл (который видит больше источников), а также для того, чтобы поблагодарить релизера, вам необходимо зарегистрироваться. Если регистрироваться лень - вы можете также попробовать скачать релиз по нашим партнерским ссылкам ниже.

[underverse.su].t57883.torrent
Трекер: Зарегистрирован   [ 05.09.2015 11:50 ]  

Статус: проверено (by makkol at 08.09.2015 11:51)
Поблагодарили: пока никто не поблагодарил...
Тип торрента: публичный - доступные источники с открытых трекеров: 
Размер: 1,46 GB (занимает 0,33 DVDR, для записи нужно 1 болванка DVDR/RW)
 
 
Похожие темы
Форум Тема Автор Торрент Отв. Посл. сооб.
Зарубежное кино [DVDRip, Low-Res HDRip, и т.д.] Тьма была ночью / Dark Was the Night (Джек Хеллер) [2014 г., ужасы, триллер, драма, WEB-DLRip] DVO makkol
48 | 0

0 | 475

18

03.08.2015 23:47

Зарубежное кино [HDDVDRip / BDRip / WEB-DL / HDTV 1080/720р] Тьма была ночью / Dark Was the Night (Джек Хеллер) [2014 г., ужасы, триллер, драма, WEB-DL 720p] DVO + Original + Subs (Eng) makkol
26 | 2

0 | 550

10

03.08.2015 23:59


Яндекс.Метрика powered by Sphinx


В Н И М А Н И Е
Сайт не распространяет и не хранит электронные версии произведений, а лишь бесплатно и без коммерческой выгоды (не требуя взамен платы,
SMS и т.д.) предоставляет доступ к создаваемому пользователями каталогу ссылок на торрент-файлы, которые содержат только списки хеш-сумм.
Убедительная просьба с жалобами обращаться напрямую к пользователю, разместившему торрент файл.

Вверх