Loading...
Error

Полтергейст (Расширенная версия) / Poltergeist (Extended Cut) (Гил Кинан) [2015 г., ужасы, триллер, WEB-DLRip] Dub

Статистика раздачи
Размер:  1,46 GB   |    Зарегистрирован:  1 год 3 месяца   |    Скачан:  16 раз

Полного источника не было: 3 месяца 12 дней

Сидов:  0  |  0 KB/s  ]   Личеров:  0  |  0 KB/s  ]

* - сиды/пиры с внешних источников

   
 
Автор Сообщение

makkol Пол:Муж

04-Сен-2015 14:00

Полтергейст (Расширенная версия) / Poltergeist (Extended Cut)
«Они знают, чего ты боишься»


Год выпуска: 2015
Жанр: ужасы, триллер
Страна: США , Канада (Metro-Goldwyn-Mayer (MGM), Ghost House Pictures)
Режиссер: Гил Кинан
В ролях: Сэм Рокуэлл, Розмари ДеУитт, Саксон Шарбино, Кайл Кэтлетт, Кеннеди Клементс, Джаред Харрис, Джейн Адамс, Сьюзэн Хэйард, Николас Браун, Карен Ивани
Сюжет фильма:
Когда страшные призраки забирают младшую дочь, семье приходится объединиться, чтобы спасти ее…

  • Мировая премьера: 18 мая 2015
  • Российская премьера: 18 июня 2015


Примечание: EXTENDED версия длинее театральной на 8 мин

Качество видео: WEB-DLRip

Продолжительность: 01:41:17
Формат: AVI
Видео: XviD, 720x304 (2.35:1), 23.976 fps, 1671 kbps
Аудио: русский, дублированный (iTunes), AC3 5.1, 48 kHz, 384 kbps

Код:

Format : AVI
Format/Info : Audio Video Interleave
File size : 1.46 GiB
Duration : 1h 41mn
Overall bit rate : 2 062 Kbps
Writing application : VirtualDubMod 1.5.10.3 | www.virtualdub-fr.org || (build 2550/release)
Writing library : VirtualDubMod build 2550/release

Video
ID : 0
Format : MPEG-4 Visual
Format profile : Advanced Simple@L5
Format settings, BVOP : Yes
Format settings, QPel : No
Format settings, GMC : No warppoints
Format settings, Matrix : Default (MPEG)
Codec ID : XVID
Codec ID/Hint : XviD
Duration : 1h 41mn
Bit rate : 1 671 Kbps
Width : 720 pixels
Height : 304 pixels
Display aspect ratio : 2.35:1
Frame rate : 23.976 fps
Resolution : 8 bits
Colorimetry : 4:2:0
Scan type : Progressive
Bits/(Pixel*Frame) : 0.318
Stream size : 1.18 GiB (81%)
Writing library : XviD 1.2.1 (UTC 2008-12-04)

Audio
ID : 1
Format : AC-3
Format/Info : Audio Coding 3
Codec ID : 2000
Duration : 1h 40mn
Bit rate mode : Constant
Bit rate : 384 Kbps
Channel(s) : 6 channels
Channel positions : Front: L C R, Surround: L R, LFE
Sampling rate : 48.0 KHz
Stream size : 277 MiB (19%)
Alignment : Split accross interleaves
Interleave, duration : 42 ms (1.01 video frame)
Interleave, preload duration : 500 ms
picpicpicpicpic
Для увеличения картинки щелкните мышкой по превью

Этот торрент недоступен для скачивания без регистрации, однако доступен по публичной magnet-ссылке (источники с публичных трекеров). Перед использованием ссылки прочтите, пожалуйста Пользовательское соглашение, а также как можно дольше оставайтесь на раздаче! Для того, чтобы скачать сам торрент-файл (который видит больше источников), а также для того, чтобы поблагодарить релизера, вам необходимо зарегистрироваться. Если регистрироваться лень - вы можете также попробовать скачать релиз по нашим партнерским ссылкам ниже.

[underverse.su].t57847.torrent
Трекер: Зарегистрирован   [ 04.09.2015 14:00 ]  

Статус: T временная (by makkol at 05.09.2015 11:26)
Поблагодарили: пока никто не поблагодарил...
Тип торрента: публичный - доступные источники с открытых трекеров: 
Размер: 1,46 GB (занимает 1/3 DVDR, для записи нужно 1 болванка DVDR/RW)
 
 
Похожие темы
Форум Тема Автор Торрент Отв. Посл. сооб.
T Зарубежное кино [DVDRip, Low-Res HDRip, и т.д.] Полтергейст / Poltergeist (Гил Кинан) [2015 г., ужасы, триллер, HDTVRip] Dub (звук с CAMRip) + Original makkol
2 | 0

0 | 538

12

22.06.2015 09:09

T Зарубежное кино [DVDRip, Low-Res HDRip, и т.д.] Полтергейст / Poltergeist (Гил Кинан) [2015 г., ужасы, триллер, HDTVRip] Dub (Line) makkol
183 | 1

0 | 644

46

25.06.2015 22:20

Зарубежное кино [DVDRip, Low-Res HDRip, и т.д.] Полтергейст / Неприглашенные / The Uninvited / Victim of the Haunt (Ларри Шоу) [1996 г., ужасы, триллер, DVDRip] VO + Original makkol
1 | 6

0 | 661

3

23.07.2015 12:20

Зарубежное кино [DVD / HDDVD / BD / Remux] Полтергейст / Poltergeist (Гил Кинан) [2015 г., ужасы, триллер, Blu-Ray Remux] Extended Cut | iTunes | Dub (Rus) + Dub (Ukr) + Original + Subs ultarasbarcelona
3 | 0

0 | 1000

9

18.09.2015 17:45

Зарубежное кино [HDDVDRip / BDRip / WEB-DL / HDTV 1080/720р] Полтергейст. Трилогия / Poltergeist. Trilogy (Тоб Хупер, Брайан Гибсон, Гэри Шерман) [1982-1988 г., Ужасы, BDRip 720p] MVO (Rus) + AVO (Rus, Либергал, Визгунов) + Original (Eng) + Subs (Rus, Eng) Ведьмочка
1 | 0

0 | 974

7

17.07.2014 09:08

T Зарубежное кино [HDDVDRip / BDRip / WEB-DL / HDTV 1080/720р] Полтергейст / Poltergeist (Гил Кинан) [2015 г., ужасы, триллер, HDTVRip 1080p] Dub (звук с CAMRip) + Original makkol
0 | 0

0 | 533

5

22.06.2015 09:20

T Зарубежное кино [HDDVDRip / BDRip / WEB-DL / HDTV 1080/720р] Полтергейст / Poltergeist (Гил Кинан) [2015 г., ужасы, триллер, HDTVRip 1080p] Dub (Line) + Original makkol
268 | 4

0 | 675

15

25.06.2015 22:35

T Зарубежное кино [HDDVDRip / BDRip / WEB-DL / HDTV 1080/720р] Полтергейст / Poltergeist (Гил Кинан) [2015 г., ужасы, триллер, HDTVRip 720p] Dub (Line) + Original makkol
24 | 0

0 | 500

10

25.06.2015 22:50

T Зарубежное кино [HDDVDRip / BDRip / WEB-DL / HDTV 1080/720р] Полтергейст (Расширенная версия) / Poltergeist (Extended Cut) (Гил Кинан) [2015 г., ужасы, триллер, WEB-DL 720p] Dub makkol
43 | 1

0 | 294

13

04.09.2015 14:11

T Зарубежное кино [HDDVDRip / BDRip / WEB-DL / HDTV 1080/720р] Полтергейст (Расширенная версия) / Poltergeist (Extended Cut) (Гил Кинан) [2015 г., ужасы, триллер, WEB-DL 1080p] Dub makkol
3 | 0

0 | 483

17

04.09.2015 14:23


Яндекс.Метрика powered by Sphinx


В Н И М А Н И Е
Сайт не распространяет и не хранит электронные версии произведений, а лишь бесплатно и без коммерческой выгоды (не требуя взамен платы,
SMS и т.д.) предоставляет доступ к создаваемому пользователями каталогу ссылок на торрент-файлы, которые содержат только списки хеш-сумм.
Убедительная просьба с жалобами обращаться напрямую к пользователю, разместившему торрент файл.

Вверх