Loading...
Error

Октябрьский шторм / October Gale (Руба Надда) [2014 г., триллер, драма, мелодрама, HDRip] DVO

Статистика раздачи
Размер:  1,36 GB   |    Зарегистрирован:  1 год 3 месяца   |    Скачан:  12 раз

Полного источника не было: 10 месяцев

Сидов:  0  |  0 KB/s  ]   Личеров:  0  |  0 KB/s  ]

* - сиды/пиры с внешних источников

   
 
Автор Сообщение

makkol Пол:Муж

04-Сен-2015 12:48

Октябрьский шторм / October Gale


Год выпуска: 2014
Жанр: триллер, драма, мелодрама
Производство: Канада [Foundry Films Inc., Killer Films]
Режиссер: Руба Надда
В ролях: Патришия Кларксон, Скотт Спидман, Тим Рот, Каллум Кит Ренни, Эйдан Дивайн, Билли Маклеллан, Эрик Мердок
Сюжет фильма:
Женщина-врач обнаруживает у себя в коттедже, расположенном на изолированном от материка острове, молодого мужчину с огнестрельным ранением. Оказав ему помощь, она тем самым подвергает собственную жизнь опасности, ведь убийца намерен довести начатое до конца, и даже шторм не способен его остановить.

  • Мировая премьера: 11 сентября 2014


Качество видео: HDRip

Продолжительность: 01:31:08
Формат: AVI
Видео: XviD, 720x304 (2.35:1), 23.976 fps, 1749 kbps
Аудио: русский, любительский двухголосый закадровый (Victory-Films), AC3 5.1, 48 kHz, 384 kbps

Код:

Общее
Полное имя : Oktober.Gale.2014.L2.HDRip.1400Mb.avi
Формат : AVI
Формат/Информация : Audio Video Interleave
Размер файла : 1,36 Гбайт
Продолжительность : 1 ч. 31 м.
Общий поток : 2142 Кбит/сек
Программа кодирования : VirtualDubMod 1.5.10.3 | www.virtualdub-fr.org || (build 2550/release)
Библиотека кодирования : VirtualDubMod build 2550/release

Видео
Идентификатор : 0
Формат : MPEG-4 Visual
Профиль формата : Advanced Simple@L5
Параметр BVOP формата : 2
Параметр QPel формата : Нет
Параметр GMC формата : Без точки перехода
Параметр матрицы формата : Default (MPEG)
Идентификатор кодека : XVID
Идентификатор кодека/Подсказка : XviD
Продолжительность : 1 ч. 31 м.
Битрейт : 1749 Кбит/сек
Ширина : 720 пикселей
Высота : 304 пикселя
Соотношение сторон : 2,35:1
Частота кадров : 23,976 кадра/сек
Цветовое пространство : YUV
Субдискретизация насыщенности : 4:2:0
Битовая глубина : 8 бит
Тип развёртки : Прогрессивная
Метод сжатия : С потерями
Бит/(Пиксели*Кадры) : 0.333
Размер потока : 1,11 Гбайт (82%)
Библиотека кодирования : XviD 1.2.1 (UTC 2008-12-04)

Аудио
Идентификатор : 1
Формат : AC-3
Формат/Информация : Audio Coding 3
Расширение режима : CM (complete main)
Идентификатор кодека : 2000
Продолжительность : 1 ч. 31 м.
Вид битрейта : Постоянный
Битрейт : 384 Кбит/сек
Каналы : 6 каналов
Расположение каналов : Front: L C R, Side: L R, LFE
Частота : 48,0 КГц
Битовая глубина : 16 бит
Метод сжатия : С потерями
Размер потока : 250 Мбайт (18%)
Выравнивание : Разделение по промежуткам
Продолжительность промежутка : 42 мс. (1,00 видеокадр)
Время предзагрузки промежутка : 500 мс.
picpicpicpicpic
Для увеличения картинки щелкните мышкой по превью

Этот торрент недоступен для скачивания без регистрации, однако доступен по публичной magnet-ссылке (источники с публичных трекеров). Перед использованием ссылки прочтите, пожалуйста Пользовательское соглашение, а также как можно дольше оставайтесь на раздаче! Для того, чтобы скачать сам торрент-файл (который видит больше источников), а также для того, чтобы поблагодарить релизера, вам необходимо зарегистрироваться. Если регистрироваться лень - вы можете также попробовать скачать релиз по нашим партнерским ссылкам ниже.

[underverse.su].t57837.torrent
Трекер: Зарегистрирован   [ 04.09.2015 12:48 ]  

Статус: проверено (by makkol at 05.09.2015 11:12)
Поблагодарили: 1 человек
Тип торрента: публичный - доступные источники с открытых трекеров: 
Размер: 1,36 GB (занимает 0,31 DVDR, для записи нужно 1 болванка DVDR/RW)
 
 
Похожие темы
Форум Тема Автор Торрент Отв. Посл. сооб.
Зарубежное кино [DVDRip, Low-Res HDRip, и т.д.] Октябрьский шторм / October Gale (Руба Надда) [2014 г., триллер, драма, мелодрама, HDRip] VO (PashaUp) 90ytr90
81 | 0

0 | 405

3

08.02.2015 11:17

Зарубежное кино [DVDRip, Low-Res HDRip, и т.д.] Октябрьский шторм / October Gale (Руба Надда) [2014 г., триллер, драма, мелодрама, HDRip] VO (RAIM) 90ytr90
11 | 0

0 | 496

7

17.02.2015 05:35

Исторические фильмы Октябрьский набат (Алла Дерюгина) [2011, документальный, TVRip] матроскин
0 | 0

1 | 510

6

27.04.2013 11:48

Зарубежное кино [HDDVDRip / BDRip / WEB-DL / HDTV 1080/720р] Октябрьский шторм / October Gale (Руба Надда) [2014 г., триллер, драма, мелодрама, BDRip 1080p] DVO + Original makkol
5 | 0

0 | 422

12

04.09.2015 13:02


Яндекс.Метрика powered by Sphinx


В Н И М А Н И Е
Сайт не распространяет и не хранит электронные версии произведений, а лишь бесплатно и без коммерческой выгоды (не требуя взамен платы,
SMS и т.д.) предоставляет доступ к создаваемому пользователями каталогу ссылок на торрент-файлы, которые содержат только списки хеш-сумм.
Убедительная просьба с жалобами обращаться напрямую к пользователю, разместившему торрент файл.

Вверх