Loading...
Error

Алтергейст / Altergeist (Теди Сарафьян) [2014 г., ужасы, фантастика, триллер, WEBRip] DVO + Original

Статистика раздачи
Размер:  1,08 GB   |    Зарегистрирован:  1 год 3 месяца   |    Скачан:  23 раза

Полного источника не было: 6 месяцев

Сидов:  0  |  0 KB/s  ]   Личеров:  0  |  0 KB/s  ]

* - сиды/пиры с внешних источников

   
 
Автор Сообщение

makkol Пол:Муж

04-Сен-2015 12:36

Алтергейст / Altergeist


Год выпуска: 2014
Жанр: ужасы, фантастика, триллер
Страна: США [Heckart Studios]
Режиссер: Теди Сарафьян
В ролях: Кристина Анапау, Марк Гапка, Дэвид Вайдофф, Линси Годфри, Брендан Флетчер, Алексис Крус, Сара Ох, Оливия Стак, Ричард Сарафьян мл., Джессика Споттс
Сюжет фильма:
В конце 1800-х, женщина переехала в фамильное поместье Алтергейст, на территории которого в прошлом происходили события, наложившие на это место ужасный отпечаток. Шесть охотников за привидениями получили редкую возможность провести расследование паранормальных явлений. То, что они обнаруживают, пугает их.

  • Мировая премьера: 25 августа 2014


Качество видео: WEBRip

Продолжительность: 01:23:09
Формат: AVI
Видео: XviD, 640x286 (2.25:1), 29.970 fps, 1388 kbps
Аудио #1: русский, любительский двухголосый закадровый (den904 & DeadSno), AC3 2.0, 48 kHz, 192 kbps
Аудио #2: английский, оригинал, MP3 2.0, 44.1 kHz, 96 kbps

Код:

Формат                                   : AVI
Формат/Информация                        : Audio Video Interleave
Размер файла                             : 1,08 Гбайт
Продолжительность                        : 1 ч. 30 м.
Общий поток                              : 1695 Кбит/сек
Программа кодирования                    : VirtualDubMod 1.5.10.2 (build 2540/release)
Библиотека кодирования                   : VirtualDubMod build 2540/release

Видео
Идентификатор                            : 0
Формат                                   : MPEG-4 Visual
Профиль формата                          : Advanced Simple@L5
Параметр BVOP формата                    : 2
Параметр QPel формата                    : Нет
Параметр GMC формата                     : Без точки перехода
Параметр матрицы формата                 : Default (MPEG)
Режим смешивания                         : Сжатый битовый поток
Идентификатор кодека                     : XVID
Идентификатор кодека/Подсказка           : XviD
Продолжительность                        : 1 ч. 30 м.
Битрейт                                  : 1388 Кбит/сек
Ширина                                   : 640 пикселей
Высота                                   : 286 пикселей
Соотношение сторон                       : 2,25:1
Частота кадров                           : 29,970 кадров/сек
Цветовое пространство                    : YUV
Субдискретизация насыщенности            : 4:2:0
Битовая глубина                          : 8 бит
Тип развёртки                            : Прогрессивная
Метод сжатия                             : С потерями
Бит/(Пиксели*Кадры)                      : 0.253
Размер потока                            : 903 Мбайт (82%)
Библиотека кодирования                   : XviD 66

Аудио #1
Идентификатор                            : 1
Формат                                   : AC-3
Формат/Информация                        : Audio Coding 3
Расширение режима                        : CM (complete main)
Параметр Endianness формата              : Big
Идентификатор кодека                     : 2000
Продолжительность                        : 1 ч. 30 м.
Вид битрейта                             : Постоянный
Битрейт                                  : 192 Кбит/сек
Каналы                                   : 2 канала
Расположение каналов                     : Front: L R
Частота                                  : 48,0 КГц
Метод сжатия                             : С потерями
Размер потока                            : 125 Мбайт (11%)
Выравнивание                             : Разделение по промежуткам
Продолжительность промежутка             : 33  мс. (1,00 видеокадр)
Время предзагрузки промежутка            : 500  мс.

Аудио #2
Идентификатор                            : 2
Формат                                   : MPEG Audio
Версия формата                           : Version 1
Профиль формата                          : Layer 3
Режим                                    : Joint stereo
Расширение режима                        : MS Stereo
Идентификатор кодека                     : 55
Идентификатор кодека/Подсказка           : MP3
Продолжительность                        : 1 ч. 30 м.
Вид битрейта                             : Постоянный
Битрейт                                  : 96,0 Кбит/сек
Каналы                                   : 2 канала
Частота                                  : 44,1 КГц
Метод сжатия                             : С потерями
Размер потока                            : 62,5 Мбайт (6%)
Выравнивание                             : Соединение по промежуткам
Продолжительность промежутка             : 26  мс. (0,78 видеокадр)
Время предзагрузки промежутка            : 522  мс.
Библиотека кодирования                   : LAME3.98.2
picpicpicpic
Для увеличения картинки щелкните мышкой по превью

Этот торрент недоступен для скачивания без регистрации, однако доступен по публичной magnet-ссылке (источники с публичных трекеров). Перед использованием ссылки прочтите, пожалуйста Пользовательское соглашение, а также как можно дольше оставайтесь на раздаче! Для того, чтобы скачать сам торрент-файл (который видит больше источников), а также для того, чтобы поблагодарить релизера, вам необходимо зарегистрироваться. Если регистрироваться лень - вы можете также попробовать скачать релиз по нашим партнерским ссылкам ниже.

[underverse.su].t57836.torrent
Трекер: Зарегистрирован   [ 04.09.2015 12:36 ]  

Статус: проверено (by makkol at 05.09.2015 11:11)
Поблагодарили: пока никто не поблагодарил...
Тип торрента: публичный - доступные источники с открытых трекеров: 
Размер: 1,08 GB (занимает 0,25 DVDR, для записи нужно 1 болванка DVDR/RW)
 
 

Яндекс.Метрика powered by Sphinx


В Н И М А Н И Е
Сайт не распространяет и не хранит электронные версии произведений, а лишь бесплатно и без коммерческой выгоды (не требуя взамен платы,
SMS и т.д.) предоставляет доступ к создаваемому пользователями каталогу ссылок на торрент-файлы, которые содержат только списки хеш-сумм.
Убедительная просьба с жалобами обращаться напрямую к пользователю, разместившему торрент файл.

Вверх