Loading...
Error

Волчонок / Оборотень / Teen Wolf / Сезон 4 (1-12 серии из 12) (Рассел Малкэй, Тим Эндрю, Тоби Уилкинс) [2014 г., ужасы, триллер, драма, мелодрама, комедия, WEB-DLRip] MVO (VO-production)

Статистика раздачи
Размер:  4,68 GB   |    Зарегистрирован:  1 год 3 месяца   |    Скачан:  7 раз

Полного источника не было: 6 дней

Сидов:  0  |  0 KB/s  ]   Личеров:  0  |  0 KB/s  ]

* - сиды/пиры с внешних источников

   
 
Автор Сообщение

older Пол:Муж

04-Сен-2015 07:00

Волчонок / Оборотень / Teen Wolf / Сезон 4 (1-12 серии из 12)


Год выпуска: 2014
Жанр: ужасы, триллер, драма, мелодрама, комедия
Страна: США
Режиссер: Рассел Малкэй, Тим Эндрю, Тоби Уилкинс
В ролях: Дилан О’Брайэн, Тайлер Пози, Арден Чо, Холлэнд Роден, Тайлер Хэклин, Шелли Хеннинг, Линден Эшби, ДжейАр Борн, Мелисса Понцио, Иэн Боэн
Сюжет фильма:
Все ещё залечивая раны от горьких потерь, Скотт, Стайлз, Лидия и Кира возвращаются в школу в новом семестре, и человеческие заботы преобладают над сверхъестественными. Так же, Стая пытается помочь своему новому другу, Малии, вернуться вновь в общество. Но неожиданное воскрешение Кейт Арджент приносит с собой новую угрозу в Бэйкон Хиллс наряду с появлением другого таинственного врага, известного под именем Благодетель.

Качество видео: WEB-DLRip

Продолжительность: ~ 00:42:00
Формат: AVI
Видео: XviD, 720х400, 1100 kbps
Аудио: русский, многоголосый закадровый [профессиональный], AC3 2.0, 192 kbps, - VO-production

Код:

Общее
Полное имя                               : \Teen Wolf (VO-production) S04.WEB-DLRip\TW_0401_WEB-DLrip_VO-production.avi
Формат                                   : AVI
Формат/Информация                        : Audio Video Interleave
Размер файла                             : 393 Мбайт
Продолжительность                        : 42 м.
Общий поток                              : 1301 Кбит/сек
Программа кодирования                    : VirtualDubMod 1.5.10.2 (build 2540/release)
Библиотека кодирования                   : VirtualDub build 35491/release

Видео
Идентификатор                            : 0
Формат                                   : MPEG-4 Visual
Профиль формата                          : Advanced Simple@L5
Параметр BVOP формата                    : 2
Параметр QPel формата                    : Нет
Параметр GMC формата                     : Без точки перехода
Параметр матрицы формата                 : Default (H.263)
Режим смешивания                         : Сжатый битовый поток
Идентификатор кодека                     : XVID
Идентификатор кодека/Подсказка           : XviD
Продолжительность                        : 42 м.
Битрейт                                  : 1100 Кбит/сек
Ширина                                   : 720 пикселей
Высота                                   : 400 пикселей
Соотношение сторон                       : 16:9
Частота кадров                           : 23,976 кадра/сек
Цветовое пространство                    : YUV
Субдискретизация насыщенности            : 4:2:0
Битовая глубина                          : 8 бит
Тип развёртки                            : Прогрессивная
Метод сжатия                             : С потерями
Бит/(Пиксели*Кадры)                      : 0.159
Размер потока                            : 332 Мбайт (85%)
Библиотека кодирования                   : XviD 1.2.0.dev47 (UTC 2006-11-01)

Аудио
Идентификатор                            : 1
Формат                                   : AC-3
Формат/Информация                        : Audio Coding 3
Расширение режима                        : CM (complete main)
Параметр Endianness формата              : Big
Идентификатор кодека                     : 2000
Продолжительность                        : 42 м.
Вид битрейта                             : Постоянный
Битрейт                                  : 192 Кбит/сек
Каналы                                   : 2 канала
Расположение каналов                     : Front: L R
Частота                                  : 48,0 КГц
Битовая глубина                          : 16 бит
Метод сжатия                             : С потерями
Размер потока                            : 58,0 Мбайт (15%)
Выравнивание                             : Соединение по промежуткам
Продолжительность промежутка             : 42  мс. (1,00 видеокадр)
Время предзагрузки промежутка            : 512  мс.

Семпл:

Релиз группы:

picpicpicpicpic
Для увеличения картинки щелкните мышкой по превью

Этот торрент недоступен для скачивания без регистрации, однако доступен по публичной magnet-ссылке (источники с публичных трекеров). Перед использованием ссылки прочтите, пожалуйста Пользовательское соглашение, а также как можно дольше оставайтесь на раздаче! Для того, чтобы скачать сам торрент-файл (который видит больше источников), а также для того, чтобы поблагодарить релизера, вам необходимо зарегистрироваться. Если регистрироваться лень - вы можете также попробовать скачать релиз по нашим партнерским ссылкам ниже.

[underverse.su].t57829.torrent
Трекер: Зарегистрирован   [ 04.09.2015 07:00 ]  

Статус: проверено (by makkol at 04.09.2015 11:19)
Поблагодарили: пока никто не поблагодарил...
Тип торрента: публичный - доступные источники с открытых трекеров: 
Размер: 4,68 GB (занимает 1,07 DVDR, для записи нужно 2 болванки DVDR/RW)
 
 
Похожие темы
Форум Тема Автор Торрент Отв. Посл. сооб.
Зарубежные сериалы Волчонок / Оборотень / Teen Wolf / Сезон 1 (1-12 серии из 12) (Рассел Малкэй, Тим Эндрю, Тоби Уилкинс) [2011 г., ужасы, триллер, драма, мелодрама, комедия, WEB-DLRip] MVO (AXN Sci-Fi Россия) +... older
25 | 8

0 | 439

5

04.09.2015 05:15

Зарубежные сериалы Волчонок / Оборотень / Teen Wolf / Сезон 2 (1-12 серии из 12) (Рассел Малкэй, Тим Эндрю, Тоби Уилкинс) [2012 г., ужасы, триллер, драма, мелодрама, комедия, WEB-DLRip] MVO (Sony Sci-Fi) + Original older
16 | 2

0 | 424

4

04.09.2015 05:57

Зарубежные сериалы Волчонок / Оборотень / Teen Wolf / Сезон 3 (1-24 серии из 24) (Рассел Малкэй, Тим Эндрю, Тоби Уилкинс) [2013 г., ужасы, триллер, драма, мелодрама, комедия, WEB-DLRip] MVO (Sony Sci-Fi) + Original older
12 | 5

0 | 383

6

04.09.2015 06:37

T Зарубежные сериалы Волчонок / Оборотень / Teen Wolf / Сезон 5 (1-10 серии из 20) (Рассел Малкэй, Тим Эндрю, Тоби Уилкинс) [2015 г., ужасы, триллер, драма, мелодрама, комедия, WEB-DLRip] MVO (VO-production) older
3 | 2

0 | 503

6

04.09.2015 07:45


Яндекс.Метрика powered by Sphinx


В Н И М А Н И Е
Сайт не распространяет и не хранит электронные версии произведений, а лишь бесплатно и без коммерческой выгоды (не требуя взамен платы,
SMS и т.д.) предоставляет доступ к создаваемому пользователями каталогу ссылок на торрент-файлы, которые содержат только списки хеш-сумм.
Убедительная просьба с жалобами обращаться напрямую к пользователю, разместившему торрент файл.

Вверх