Loading...
Error

Волчонок / Оборотень / Teen Wolf / Сезон 2 (1-12 серии из 12) (Рассел Малкэй, Тим Эндрю, Тоби Уилкинс) [2012 г., ужасы, триллер, драма, мелодрама, комедия, WEB-DLRip] MVO (Sony Sci-Fi) + Original

Статистика раздачи
Размер:  5,28 GB   |    Зарегистрирован:  1 год 3 месяца   |    Скачан:  4 раза

Полного источника не было: 1 месяц 24 дня

Сидов:  0  |  0 KB/s  ]   Личеров:  0  |  0 KB/s  ]

* - сиды/пиры с внешних источников

   
 
Автор Сообщение

older Пол:Муж

04-Сен-2015 05:57

Волчонок / Оборотень / Teen Wolf / Сезон 2 (1-12 серии из 12)


Год выпуска: 2012
Жанр: ужасы, триллер, драма, мелодрама, комедия
Страна: США
Режиссер: Рассел Малкэй, Тим Эндрю, Тоби Уилкинс
В ролях: Тайлер Пози, Кристал Рид, Дилан О’Брайэн, Колтон Хэйнс, Холлэнд Роден, Линден Эшби, Тайлер Хёхлин, ДжейАр Борн, Мелисса Понцио и др.
Сюжет фильма:
Скотт был просто обычным парнем, пока один укус не изменил его жизнь навсегда. Теперь он изо всех сил пытается понять, кто он и кем он может стать. В нем больше волка чем человека - или все совсем наоборот? Как бы то ни было, легко не будет. Скотт попытается управлять своими наклонностями, но больше всего он боится, что эти его новые наклонности, в конце концов, начнут управлять им. "Волчонок" - история Скотта, то как он пытается идти по узкой границе между тем, чего он хочет и чего он не может не хотеть. Станет ли случившееся с ним благословением? Или это будет проклятие? И как это отразится на его отношениях с Аллисон - девушкой, которую он так любит? Только время покажет, должен ли он принять свои новообретенные способности, или бояться их.

Качество видео: WEB-DLRip

Продолжительность: ~ 00:41:00
Формат: AVI
Видео: XviD, 720х400, 1231 kbps
Аудио #1: русский, многоголосый закадровый [профессиональный], MP3 2.0, 128 kbps, - Sony Sci-Fi
Аудио #2: английский, оригинал, MP3 2.0, 128 kbps

Код:

Общее
Полное имя                               : \Teen Wolf Season 2\teen.wolf.s02e01.web-dlrip.rus.eng.to4ka.tv.avi
Формат                                   : AVI
Формат/Информация                        : Audio Video Interleave
Размер файла                             : 450 Мбайт
Продолжительность                        : 41 м.
Общий поток                              : 1501 Кбит/сек
Программа кодирования                    : VirtualDubMod 1.6.0.0 SURROUND (build 2560/release)
Библиотека кодирования                   : VirtualDubMod build 2560/release

Видео
Идентификатор                            : 0
Формат                                   : MPEG-4 Visual
Профиль формата                          : Advanced Simple@L5
Параметр BVOP формата                    : 1
Параметр QPel формата                    : Нет
Параметр GMC формата                     : Без точки перехода
Параметр матрицы формата                 : Default (MPEG)
Идентификатор кодека                     : XVID
Идентификатор кодека/Подсказка           : XviD
Продолжительность                        : 41 м.
Битрейт                                  : 1231 Кбит/сек
Ширина                                   : 720 пикселей
Высота                                   : 400 пикселей
Соотношение сторон                       : 16:9
Частота кадров                           : 23,976 кадра/сек
Цветовое пространство                    : YUV
Субдискретизация насыщенности            : 4:2:0
Битовая глубина                          : 8 бит
Тип развёртки                            : Прогрессивная
Метод сжатия                             : С потерями
Бит/(Пиксели*Кадры)                      : 0.178
Размер потока                            : 369 Мбайт (82%)
Библиотека кодирования                   : XviD 64

Аудио #1
Идентификатор                            : 1
Формат                                   : MPEG Audio
Версия формата                           : Version 1
Профиль формата                          : Layer 3
Режим                                    : Joint stereo
Расширение режима                        : MS Stereo
Идентификатор кодека                     : 55
Идентификатор кодека/Подсказка           : MP3
Продолжительность                        : 41 м.
Вид битрейта                             : Постоянный
Битрейт                                  : 128 Кбит/сек
Каналы                                   : 2 канала
Частота                                  : 48,0 КГц
Метод сжатия                             : С потерями
Размер потока                            : 38,4 Мбайт (9%)
Выравнивание                             : Соединение по промежуткам
Продолжительность промежутка             : 42  мс. (1,00 видеокадр)
Время предзагрузки промежутка            : 504  мс.

Аудио #2
Идентификатор                            : 2
Формат                                   : MPEG Audio
Версия формата                           : Version 1
Профиль формата                          : Layer 3
Режим                                    : Joint stereo
Расширение режима                        : MS Stereo
Идентификатор кодека                     : 55
Идентификатор кодека/Подсказка           : MP3
Продолжительность                        : 41 м.
Вид битрейта                             : Постоянный
Битрейт                                  : 128 Кбит/сек
Каналы                                   : 2 канала
Частота                                  : 48,0 КГц
Метод сжатия                             : С потерями
Размер потока                            : 38,4 Мбайт (9%)
Выравнивание                             : Соединение по промежуткам
Продолжительность промежутка             : 42  мс. (1,00 видеокадр)
Время предзагрузки промежутка            : 504  мс.
Библиотека кодирования                   : LAME3.98r
Настройки программы                      : -m j -V 4 -q 2 -lowpass 17 -b 128

Семпл:

Релиз группы:

picpicpicpicpic
Для увеличения картинки щелкните мышкой по превью

Этот торрент недоступен для скачивания без регистрации, однако доступен по публичной magnet-ссылке (источники с публичных трекеров). Перед использованием ссылки прочтите, пожалуйста Пользовательское соглашение, а также как можно дольше оставайтесь на раздаче! Для того, чтобы скачать сам торрент-файл (который видит больше источников), а также для того, чтобы поблагодарить релизера, вам необходимо зарегистрироваться. Если регистрироваться лень - вы можете также попробовать скачать релиз по нашим партнерским ссылкам ниже.

[underverse.su].t57827.torrent
Трекер: Зарегистрирован   [ 04.09.2015 05:57 ]  

Статус: проверено (by makkol at 04.09.2015 11:17)
Поблагодарили: пока никто не поблагодарил...
Тип торрента: публичный - доступные источники с открытых трекеров: 
Размер: 5,28 GB (занимает 1,21 DVDR, для записи нужно 2 болванки DVDR/RW)
 
 
Похожие темы
Форум Тема Автор Торрент Отв. Посл. сооб.
Зарубежные сериалы Волчонок / Оборотень / Teen Wolf / Сезон 1 (1-12 серии из 12) (Рассел Малкэй, Тим Эндрю, Тоби Уилкинс) [2011 г., ужасы, триллер, драма, мелодрама, комедия, WEB-DLRip] MVO (AXN Sci-Fi Россия) +... older
25 | 8

0 | 438

5

04.09.2015 05:15

Зарубежные сериалы Волчонок / Оборотень / Teen Wolf / Сезон 3 (1-24 серии из 24) (Рассел Малкэй, Тим Эндрю, Тоби Уилкинс) [2013 г., ужасы, триллер, драма, мелодрама, комедия, WEB-DLRip] MVO (Sony Sci-Fi) + Original older
12 | 5

0 | 381

6

04.09.2015 06:37

Зарубежные сериалы Волчонок / Оборотень / Teen Wolf / Сезон 4 (1-12 серии из 12) (Рассел Малкэй, Тим Эндрю, Тоби Уилкинс) [2014 г., ужасы, триллер, драма, мелодрама, комедия, WEB-DLRip] MVO (VO-production) older
53 | 9

0 | 427

7

04.09.2015 07:00

T Зарубежные сериалы Волчонок / Оборотень / Teen Wolf / Сезон 5 (1-10 серии из 20) (Рассел Малкэй, Тим Эндрю, Тоби Уилкинс) [2015 г., ужасы, триллер, драма, мелодрама, комедия, WEB-DLRip] MVO (VO-production) older
3 | 2

0 | 500

6

04.09.2015 07:45


Яндекс.Метрика powered by Sphinx


В Н И М А Н И Е
Сайт не распространяет и не хранит электронные версии произведений, а лишь бесплатно и без коммерческой выгоды (не требуя взамен платы,
SMS и т.д.) предоставляет доступ к создаваемому пользователями каталогу ссылок на торрент-файлы, которые содержат только списки хеш-сумм.
Убедительная просьба с жалобами обращаться напрямую к пользователю, разместившему торрент файл.

Вверх