Loading...
Error

Факап, или Хуже не бывает / Не мой день / Nicht mein Tag / Not My Day (Петер Торварт) [2014 г., боевик, комедия, криминал, BDRip] Dub

Статистика раздачи
Размер:  1,46 GB   |    Зарегистрирован:  1 год 3 месяца   |    Скачан:  28 раз

Полного источника не было: 5 месяцев 26 дней

Сидов:  0  |  0 KB/s  ]   Личеров:  0  |  0 KB/s  ]

* - сиды/пиры с внешних источников

   
 
Автор Сообщение

makkol Пол:Муж

03-Сен-2015 15:13

Факап, или Хуже не бывает / Не мой день / Nicht mein Tag / Not My Day


Год выпуска: 2014
Жанр: боевик, комедия, криминал
Производство: Германия [Westside Filmproduktion GmbH, Donar Film, Deutsche Columbia Pictures Film Produktion]
Режиссер: Петер Торварт
В ролях: Мориц Бляйбтрой, Аксель Штайн, Жасмин Герат, Анна Мария Мюэ, Неля Кипер, Бен Рюдингер, Касэм Ходжа, Беким Гури, Тобиас Нид, Максвелл Рихтер, Юрген Риссманн, Александр Колл, Мартина Эйтнер, Кристиан Таше, Гизем Эмре, Питер Сарач, Торстен Дохле, Уолли Дёзе, Бьорн Клут, Эмилиан Маркграф, Керстин Крамер, Ян ван Вейде, Даниэль Илигэнс, Марвин Линке, Томас Балу Мартин, Фабриция Пркацин, Петер Клоппель, Бьорн Хебель, Волкер Музмэнн, Даниэль Хермес, Маркус Мачура
Сюжет фильма:
Тилль Райнер – банковский клерк, чья жизнь довольно обычна, если не сказать скучна. Брак, работа, жизнь в небольшом городке. Огонь страсти в отношениях с женой Мириам давно утих, поглощенный повседневной рутиной. Разве это именно то, о чем он так мечтал? Герой фильма сокрушается и не знает, как изменить свою жизнь. Как вдруг, она меняется сама. В один прекрасный день Тилль становится заложником. Вооруженный грабитель банка Наппо, далеко не профессионал своего дела, берет его на прицел. Теперь эти двое героев комедийного криминального боевика «Не мой день» становятся неразрывно связаны и вынуждены провести вместе следующие 48 часов, на протяжении которых сюжет фильма ожидает немало неожиданных поворотов.

  • Мировая премьера: 16 января 2014
  • Российская премьера: 14 мая 2015


Релиз: Лицензия

Качество видео: BDRip

Продолжительность: 01:50:15
Формат: AVI
Видео: XviD, 720x304 (2.35:1), 25.000 fps, 1444 kbps
Аудио: русский, дублированный, AC3 5.1, 48 kHz, 448 kbps

Код:

Общее
Полное имя : Fakap.ili.Huzhe.ne.byvaet.2014.BDRip.avi
Формат : AVI
Формат/Информация : Audio Video Interleave
Размер файла : 1,46 Гбайт
Продолжительность : 1 ч. 50 м.
Общий поток : 1902 Кбит/сек
Режиссёр : bog3417
Программа кодирования : VirtualDubModRus 1.5.10.2 (build 2542/release)
Библиотека кодирования : VirtualDubMod build 2542/release

Видео
Идентификатор : 0
Формат : MPEG-4 Visual
Профиль формата : Advanced Simple@L5
Параметр BVOP формата : 1
Параметр QPel формата : Нет
Параметр GMC формата : Без точки перехода
Параметр матрицы формата : Выборочная
Идентификатор кодека : XVID
Идентификатор кодека/Подсказка : XviD
Продолжительность : 1 ч. 50 м.
Битрейт : 1444 Кбит/сек
Ширина : 720 пикселей
Высота : 304 пикселя
Соотношение сторон : 2,35:1
Частота кадров : 25,000 кадров/сек
Цветовое пространство : YUV
Субдискретизация насыщенности : 4:2:0
Битовая глубина : 8 бит
Тип развёртки : Прогрессивная
Метод сжатия : С потерями
Бит/(Пиксели*Кадры) : 0.264
Размер потока : 1,11 Гбайт (76%)
Библиотека кодирования : XviD 73

Аудио
Идентификатор : 1
Формат : AC-3
Формат/Информация : Audio Coding 3
Расширение режима : CM (complete main)
Параметр Endianness формата : Big
Идентификатор кодека : 2000
Продолжительность : 1 ч. 50 м.
Вид битрейта : Постоянный
Битрейт : 448 Кбит/сек
Каналы : 6 каналов
Расположение каналов : Front: L C R, Side: L R, LFE
Частота : 48,0 КГц
Битовая глубина : 16 бит
Метод сжатия : С потерями
Размер потока : 353 Мбайт (24%)
Выравнивание : Разделение по промежуткам
Продолжительность промежутка : 40 мс. (1,00 видеокадр)
Время предзагрузки промежутка : 500 мс.
picpicpicpicpic
Для увеличения картинки щелкните мышкой по превью

Этот торрент недоступен для скачивания без регистрации, однако доступен по публичной magnet-ссылке (источники с публичных трекеров). Перед использованием ссылки прочтите, пожалуйста Пользовательское соглашение, а также как можно дольше оставайтесь на раздаче! Для того, чтобы скачать сам торрент-файл (который видит больше источников), а также для того, чтобы поблагодарить релизера, вам необходимо зарегистрироваться. Если регистрироваться лень - вы можете также попробовать скачать релиз по нашим партнерским ссылкам ниже.

[underverse.su].t57812.torrent
Трекер: Зарегистрирован   [ 03.09.2015 15:13 ]  

Статус: проверено (by makkol at 04.09.2015 11:34)
Поблагодарили: 1 человек
Тип торрента: публичный - доступные источники с открытых трекеров: 
Размер: 1,46 GB (занимает 0,33 DVDR, для записи нужно 1 болванка DVDR/RW)
 
 
Похожие темы
Форум Тема Автор Торрент Отв. Посл. сооб.
Зарубежное кино [DVDRip, Low-Res HDRip, и т.д.] Факап, или Хуже не бывает / Nicht mein Tag (Петер Торварт) [2014 г., боевик, комедия, криминал, приключения, HDRip] Dub [iTunes] Паукан
315 | 12

0 | 588

55

13.06.2015 10:18

T Зарубежное кино [DVDRip, Low-Res HDRip, и т.д.] Факап, или Хуже не бывает / Nicht mein Tag (Петер Торварт) [2014 г., боевик, комедия, криминал, приключения, HDRip] Dub [iTunes] + Original Паукан
34 | 3

0 | 423

22

13.06.2015 10:22

T Зарубежное кино [HDDVDRip / BDRip / WEB-DL / HDTV 1080/720р] Факап, или Хуже не бывает / Nicht mein Tag (Петер Торварт) [2014 г., боевик, комедия, криминал, приключения, BDRip 720p] Dub [iTunes] + Original + Sub (Ger) Паукан
142 | 3

0 | 570

18

13.06.2015 11:40

Зарубежное кино [HDDVDRip / BDRip / WEB-DL / HDTV 1080/720р] Факап, или Хуже не бывает / Не мой день / Nicht mein Tag / Not My Day (Петер Торварт) [2014 г., боевик, комедия, криминал, BDRip 720p] Dub + Original + Subs makkol
8 | 0

0 | 459

4

03.09.2015 15:30

Зарубежное кино [HDDVDRip / BDRip / WEB-DL / HDTV 1080/720р] Факап, или Хуже не бывает / Не мой день / Nicht mein Tag / Not My Day (Петер Торварт) [2014 г., боевик, комедия, криминал, BDRip 1080p] Dub + Original + Subs makkol
14 | 0

0 | 577

9

03.09.2015 23:25


Яндекс.Метрика powered by Sphinx


В Н И М А Н И Е
Сайт не распространяет и не хранит электронные версии произведений, а лишь бесплатно и без коммерческой выгоды (не требуя взамен платы,
SMS и т.д.) предоставляет доступ к создаваемому пользователями каталогу ссылок на торрент-файлы, которые содержат только списки хеш-сумм.
Убедительная просьба с жалобами обращаться напрямую к пользователю, разместившему торрент файл.

Вверх