Loading...
Error

Вера / Vera / Сезон 5 (1-4 серии из 4) (Уильям Синклер, Питер Хор, Пол Уиттингтон) [2015 г., драма, криминал, детектив, HDTVRip] VO (ko136) + Original

Статистика раздачи
Размер:  3,15 GB   |    Зарегистрирован:  1 год 2 месяца   |    Скачан:  3 раза

Полного источника не было: 1 месяц 5 дней

Сидов:  0  |  0 KB/s  ]   Личеров:  0  |  0 KB/s  ]

* - сиды/пиры с внешних источников

   
 
Автор Сообщение

older Пол:Муж

03-Сен-2015 13:26

Вера / Vera / Сезон 5


Год выпуска: 2015
Жанр: драма, криминал, детектив
Страна: Великобритания
Режиссер: Уильям Синклер, Питер Хор, Пол Уиттингтон
В ролях: Бренда Блетин, Дэвид Леон, Пол Риттер, Джон Моррисон, Вунми Моссаку, Соня Кэссиди
Сюжет фильма:
Главная героиня сериала – старший инспектор криминальной полиции Вера Стенхоуп, которая одержима работой и ведома своими собственными демонами. Если ей одиноко, она не подаст виду и предстанет перед миром с язвительной остротой, лукавинкой в глазах и отвагой.

Качество видео: HDTVRip

Продолжительность: ~ 01:29:00
Формат: AVI
Видео: XviD, 720х404, 1176 kbps
Аудио #1: русский, одноголосый закадровый [любительский], MP3 2.0, 128 kbps, - ko136
Аудио #2: английский, оригинал, MP3 2.0, 128 kbps
Субтитры: тип: внешние, русский, формат: SRT

Код:

Общее
Полное имя                               : \VERA-5 (RUS)\Vera S05E01 Changing Tides (ko136).avi
Формат                                   : AVI
Формат/Информация                        : Audio Video Interleave
Размер файла                             : 926 Мбайт
Продолжительность                        : 1 ч. 29 м.
Общий поток                              : 1446 Кбит/сек
Программа кодирования                    : VirtualDubMod 1.5.10.2 (build 2540/release)
Библиотека кодирования                   : VirtualDubMod build 2540/release

Видео
Идентификатор                            : 0
Формат                                   : MPEG-4 Visual
Профиль формата                          : Advanced Simple@L5
Параметр BVOP формата                    : 2
Параметр QPel формата                    : Нет
Параметр GMC формата                     : Без точки перехода
Параметр матрицы формата                 : Default (H.263)
Идентификатор кодека                     : XVID
Идентификатор кодека/Подсказка           : XviD
Продолжительность                        : 1 ч. 29 м.
Битрейт                                  : 1176 Кбит/сек
Ширина                                   : 720 пикселей
Высота                                   : 404 пикселя
Соотношение сторон                       : 16:9
Частота кадров                           : 25,000 кадров/сек
Цветовое пространство                    : YUV
Субдискретизация насыщенности            : 4:2:0
Битовая глубина                          : 8 бит
Тип развёртки                            : Прогрессивная
Метод сжатия                             : С потерями
Бит/(Пиксели*Кадры)                      : 0.162
Размер потока                            : 753 Мбайт (81%)
Библиотека кодирования                   : XviD 1.1.2 (UTC 2006-11-01)

Аудио #1
Идентификатор                            : 1
Формат                                   : MPEG Audio
Версия формата                           : Version 1
Профиль формата                          : Layer 3
Режим                                    : Joint stereo
Расширение режима                        : MS Stereo
Идентификатор кодека                     : 55
Идентификатор кодека/Подсказка           : MP3
Продолжительность                        : 1 ч. 29 м.
Вид битрейта                             : Постоянный
Битрейт                                  : 128 Кбит/сек
Каналы                                   : 2 канала
Частота                                  : 44,1 КГц
Метод сжатия                             : С потерями
Размер потока                            : 82,0 Мбайт (9%)
Выравнивание                             : Разделение по промежуткам
Продолжительность промежутка             : 40  мс. (1,00 видеокадр)
Время предзагрузки промежутка            : 500  мс.

Аудио #2
Идентификатор                            : 2
Формат                                   : MPEG Audio
Версия формата                           : Version 1
Профиль формата                          : Layer 3
Режим                                    : Joint stereo
Расширение режима                        : MS Stereo
Идентификатор кодека                     : 55
Идентификатор кодека/Подсказка           : MP3
Продолжительность                        : 1 ч. 29 м.
Вид битрейта                             : Постоянный
Битрейт                                  : 128 Кбит/сек
Каналы                                   : 2 канала
Частота                                  : 44,1 КГц
Метод сжатия                             : С потерями
Размер потока                            : 82,0 Мбайт (9%)
Выравнивание                             : Разделение по промежуткам
Продолжительность промежутка             : 40  мс. (1,00 видеокадр)
Время предзагрузки промежутка            : 500  мс.

Внимание! Раздача ведётся путём добавления новых серий.
При каждом добавлении создаётся новый торрент. Чтобы начать докачку новой серии, пользователям необходимо сделать следующее:
1. Остановить скачивание,
2. Удалить старый торрент у себя из клиента (старые серии удалять не надо),
3. Скачать новый торрент и запустить его у себя в клиенте вместо старого, при этом указать клиенту путь в старую папку куда и должно происходить скачивание новых серий.
Ваш клиент при этом должен произвести хеширование (проверку) старой папки (если не производит сам - помогите ему сделать это), и будет докачивать только те серии которых у вас ещё нет. Старые серии при этом не удаляются, а продолжают раздаваться!
Если вы уже удалили старые серии, то предотвратить повторную закачку старых серий можно, отжав галочку в соответствующих местах при запуске нового торрента.
Семпл:

Релиз группы:

picpicpicpicpic
Для увеличения картинки щелкните мышкой по превью

Этот торрент недоступен для скачивания без регистрации, однако доступен по публичной magnet-ссылке (источники с публичных трекеров). Перед использованием ссылки прочтите, пожалуйста Пользовательское соглашение, а также как можно дольше оставайтесь на раздаче! Для того, чтобы скачать сам торрент-файл (который видит больше источников), а также для того, чтобы поблагодарить релизера, вам необходимо зарегистрироваться. Если регистрироваться лень - вы можете также попробовать скачать релиз по нашим партнерским ссылкам ниже.

[underverse.su].t57807.torrent
Трекер: Зарегистрирован   [ 14.09.2015 08:11 ]  

Статус: проверено (by makkol at 14.09.2015 10:38)
Поблагодарили: 1 человек
Тип торрента: публичный - доступные источники с открытых трекеров: 
Размер: 3,15 GB (занимает 0,72 DVDR, для записи нужно 1 болванка DVDR/RW)
 
 
Похожие темы
Форум Тема Автор Торрент Отв. Посл. сооб.
Зарубежные сериалы Вера / Vera / Сезон 1 (1-4 серии из 4) (Уильям Синклер, Питер Хор, Пол Уиттингтон) [2011 г., драма, криминал, детектив, DVDRip] MVO + Original older
33 | 4

0 | 301

5

03.09.2015 06:19

Зарубежные сериалы Вера / Vera / Сезон 2 (1-4 серии из 4) (Уильям Синклер, Питер Хор, Пол Уиттингтон) [2012 г., драма, криминал, детектив, DVDRip] MVO + Original older
18 | 1

0 | 298

4

03.09.2015 06:49

Зарубежные сериалы Вера / Vera / Сезон 3 (1-4 серии из 4) (Уильям Синклер, Питер Хор, Пол Уиттингтон) [2013 г., драма, криминал, детектив, HDTVRip] VO (ko136) + Original older
1 | 0

0 | 322

5

03.09.2015 07:27

Зарубежные сериалы Вера / Vera / Сезон 4 (1-4 серии из 4) ( Уильям Синклер, Питер Хор, Пол Уиттингтон) [2014 г., драма, криминал, детектив, HDTVRip] VO (ko136) + Original older
0 | 0

0 | 385

6

03.09.2015 12:32



Последний раз редактировалось: older (25.09.2015 07:29), всего редактировалось 1 раз

older Пол:Муж

14-Сен-2015 08:11

14.09.15. Раздача обновлена!
Добавлена 4, последняя серия. Сезон представлен полностью.
Перекачайте торрент файл!

Яндекс.Метрика powered by Sphinx


В Н И М А Н И Е
Сайт не распространяет и не хранит электронные версии произведений, а лишь бесплатно и без коммерческой выгоды (не требуя взамен платы,
SMS и т.д.) предоставляет доступ к создаваемому пользователями каталогу ссылок на торрент-файлы, которые содержат только списки хеш-сумм.
Убедительная просьба с жалобами обращаться напрямую к пользователю, разместившему торрент файл.

Вверх