Loading...
Error

Вера / Vera / Сезон 4 (1-4 серии из 4) ( Уильям Синклер, Питер Хор, Пол Уиттингтон) [2014 г., драма, криминал, детектив, HDTVRip] VO (ko136) + Original

Статистика раздачи
Размер:  3,5 GB   |    Зарегистрирован:  1 год 3 месяца   |    Скачан:  6 раз

Полного источника не было: 6 месяцев

Сидов:  0  |  0 KB/s  ]   Личеров:  0  |  0 KB/s  ]

* - сиды/пиры с внешних источников

   
 
Автор Сообщение

older Пол:Муж

03-Сен-2015 12:32

Вера / Vera / Сезон 4 (1-4 серии из 4)


Год выпуска: 2014
Жанр: драма, криминал, детектив
Страна: Великобритания
Режиссер: Уильям Синклер, Питер Хор, Пол Уиттингтон
В ролях: Бренда Блетин, Дэвид Леон, Пол Риттер, Джон Моррисон, Вунми Моссаку, Соня Кэссиди
Сюжет фильма:
Главная героиня сериала - старший инспектор криминальной полиции Вера Стенхоуп, которая одержима работой и ведома своими собственными демонами. Если ей одиноко, она не подаст виду и предстанет перед миром с язвительной остротой, лукавинкой в глазах и отвагой. В паре с ней работает надёжный и терпеливый коллега Джо Эшуорт. Вместе они берутся за каждое новое дело с непревзойдённым рвением и профессионализмом.

Качество видео: HDTVRip

Продолжительность: ~ 01:29:00
Формат: AVI
Видео: XviD, 704х396, 893 kbps
Аудио #1: русский, одноголосый закадровый [любительский], MP3 2.0, 160 kbps, - ko136
Аудио #2: английский, оригинал, MP3 2.0, 128 kbps
Субтитры: тип: внешние, русский, формат: SRT
picpicpicpicpicpicpicpicpicpic
Для увеличения картинки щелкните мышкой по превью
Озвучено по субтитрам: Podruga, Alex_ander, irver, Desire2107, izolenta, Kshn, gsau, landaland, cherednichen, kris4kris, MissKatyCandy, victoria_vn, teftel, the_fighter

У меня мало опыта с работами по видео, поэтому, что смог, то сделал. В части проигрывания видео на всем подряд ничего не могу гарантировать - переделывал в формат avi из mp4 и mkv (только avi понимает моя "озвучивающая" программка), поэтому и размер получается не сильно маленький и сам продукт непредсказуем. У меня были проблемы с отображением при нарезке сэмпла - видео "умирало". Делал его на ощупь)) Поэтому предположил, что не все с этим гладко может быть и у вас. Возможно, мою раздачу можно будет посмотреть только на компьютерах и ноутах при новых кодеках, на счет самостоятельно живущих плееров нет гарантий поддержки и корректного отображения...

Код:

Общее
Полное имя                               : \VERA-4 (RUS)\Vera S04E01 On Harbour Street(ko136).avi
Формат                                   : AVI
Формат/Информация                        : Audio Video Interleave
Размер файла                             : 766 Мбайт
Продолжительность                        : 1 ч. 29 м.
Общий поток                              : 1196 Кбит/сек
Программа кодирования                    : VirtualDubMod 1.5.10.2 (build 2540/release)
Библиотека кодирования                   : VirtualDubMod build 2540/release

Видео
Идентификатор                            : 0
Формат                                   : MPEG-4 Visual
Профиль формата                          : Advanced Simple@L5
Параметр BVOP формата                    : 2
Параметр QPel формата                    : Нет
Параметр GMC формата                     : Без точки перехода
Параметр матрицы формата                 : Default (H.263)
Идентификатор кодека                     : XVID
Идентификатор кодека/Подсказка           : XviD
Продолжительность                        : 1 ч. 29 м.
Битрейт                                  : 893 Кбит/сек
Ширина                                   : 704 пикселя
Высота                                   : 396 пикселей
Соотношение сторон                       : 16:9
Частота кадров                           : 25,000 кадров/сек
Цветовое пространство                    : YUV
Субдискретизация насыщенности            : 4:2:0
Битовая глубина                          : 8 бит
Тип развёртки                            : Прогрессивная
Метод сжатия                             : С потерями
Бит/(Пиксели*Кадры)                      : 0.128
Размер потока                            : 572 Мбайт (75%)
Библиотека кодирования                   : XviD 1.1.2 (UTC 2006-11-01)

Аудио #1
Идентификатор                            : 1
Формат                                   : MPEG Audio
Версия формата                           : Version 1
Профиль формата                          : Layer 3
Режим                                    : Joint stereo
Расширение режима                        : MS Stereo
Идентификатор кодека                     : 55
Идентификатор кодека/Подсказка           : MP3
Продолжительность                        : 1 ч. 29 м.
Вид битрейта                             : Постоянный
Битрейт                                  : 160 Кбит/сек
Каналы                                   : 2 канала
Частота                                  : 44,1 КГц
Метод сжатия                             : С потерями
Размер потока                            : 103 Мбайт (13%)
Выравнивание                             : Разделение по промежуткам
Продолжительность промежутка             : 40  мс. (1,00 видеокадр)
Время предзагрузки промежутка            : 500  мс.

Аудио #2
Идентификатор                            : 2
Формат                                   : MPEG Audio
Версия формата                           : Version 1
Профиль формата                          : Layer 3
Режим                                    : Joint stereo
Расширение режима                        : MS Stereo
Идентификатор кодека                     : 55
Идентификатор кодека/Подсказка           : MP3
Продолжительность                        : 1 ч. 29 м.
Вид битрейта                             : Постоянный
Битрейт                                  : 128 Кбит/сек
Каналы                                   : 2 канала
Частота                                  : 44,1 КГц
Метод сжатия                             : С потерями
Размер потока                            : 82,0 Мбайт (11%)
Выравнивание                             : Разделение по промежуткам
Продолжительность промежутка             : 40  мс. (1,00 видеокадр)
Время предзагрузки промежутка            : 500  мс.

Код:

Общее
Полное имя                               : \VERA-4 (RUS)\Vera S04E02 Protected(ko136).avi
Формат                                   : AVI
Формат/Информация                        : Audio Video Interleave
Размер файла                             : 954 Мбайт
Продолжительность                        : 1 ч. 29 м.
Общий поток                              : 1495 Кбит/сек
Программа кодирования                    : VirtualDubMod 1.5.10.2 (build 2540/release)
Библиотека кодирования                   : VirtualDubMod build 2540/release

Видео
Идентификатор                            : 0
Формат                                   : MPEG-4 Visual
Профиль формата                          : Simple@L1
Параметр BVOP формата                    : Нет
Параметр QPel формата                    : Нет
Параметр GMC формата                     : Без точки перехода
Параметр матрицы формата                 : Default (H.263)
Идентификатор кодека                     : DX50
Идентификатор кодека/Подсказка           : DivX 5
Продолжительность                        : 1 ч. 29 м.
Битрейт                                  : 1225 Кбит/сек
Ширина                                   : 704 пикселя
Высота                                   : 396 пикселей
Соотношение сторон                       : 16:9
Частота кадров                           : 25,000 кадров/сек
Цветовое пространство                    : YUV
Субдискретизация насыщенности            : 4:2:0
Битовая глубина                          : 8 бит
Тип развёртки                            : Чересстрочная
Порядок развёртки                        : Верхнее поле первое
Метод сжатия                             : С потерями
Бит/(Пиксели*Кадры)                      : 0.176
Размер потока                            : 781 Мбайт (82%)
Библиотека кодирования                   : Lavc52.30.1

Аудио #1
Идентификатор                            : 1
Формат                                   : MPEG Audio
Версия формата                           : Version 1
Профиль формата                          : Layer 3
Режим                                    : Joint stereo
Расширение режима                        : MS Stereo
Идентификатор кодека                     : 55
Идентификатор кодека/Подсказка           : MP3
Продолжительность                        : 1 ч. 29 м.
Вид битрейта                             : Постоянный
Битрейт                                  : 128 Кбит/сек
Каналы                                   : 2 канала
Частота                                  : 44,1 КГц
Метод сжатия                             : С потерями
Размер потока                            : 81,6 Мбайт (9%)
Выравнивание                             : Разделение по промежуткам
Продолжительность промежутка             : 40  мс. (1,00 видеокадр)
Время предзагрузки промежутка            : 500  мс.

Аудио #2
Идентификатор                            : 2
Формат                                   : MPEG Audio
Версия формата                           : Version 1
Профиль формата                          : Layer 3
Режим                                    : Joint stereo
Расширение режима                        : MS Stereo
Идентификатор кодека                     : 55
Идентификатор кодека/Подсказка           : MP3
Продолжительность                        : 1 ч. 29 м.
Вид битрейта                             : Постоянный
Битрейт                                  : 128 Кбит/сек
Каналы                                   : 2 канала
Частота                                  : 44,1 КГц
Метод сжатия                             : С потерями
Размер потока                            : 81,6 Мбайт (9%)
Выравнивание                             : Разделение по промежуткам
Продолжительность промежутка             : 40  мс. (1,00 видеокадр)
Время предзагрузки промежутка            : 500  мс.

 

Код:

Общее
Полное имя                               : \VERA-4 (RUS)\Vera S04E03 The Deer Hunters(ko136).avi
Формат                                   : AVI
Формат/Информация                        : Audio Video Interleave
Размер файла                             : 963 Мбайт
Продолжительность                        : 1 ч. 28 м.
Общий поток                              : 1515 Кбит/сек
Программа кодирования                    : VirtualDubMod 1.5.10.2 (build 2540/release)
Библиотека кодирования                   : VirtualDubMod build 2540/release

Видео
Идентификатор                            : 0
Формат                                   : MPEG-4 Visual
Профиль формата                          : Simple@L1
Параметр BVOP формата                    : Нет
Параметр QPel формата                    : Нет
Параметр GMC формата                     : Без точки перехода
Параметр матрицы формата                 : Default (H.263)
Идентификатор кодека                     : DX50
Идентификатор кодека/Подсказка           : DivX 5
Продолжительность                        : 1 ч. 28 м.
Битрейт                                  : 1244 Кбит/сек
Ширина                                   : 852 пикселя
Высота                                   : 480 пикселей
Соотношение сторон                       : 16:9
Частота кадров                           : 25,000 кадров/сек
Цветовое пространство                    : YUV
Субдискретизация насыщенности            : 4:2:0
Битовая глубина                          : 8 бит
Тип развёртки                            : Чересстрочная
Порядок развёртки                        : Верхнее поле первое
Метод сжатия                             : С потерями
Бит/(Пиксели*Кадры)                      : 0.122
Размер потока                            : 791 Мбайт (82%)
Библиотека кодирования                   : Lavc52.30.1

Аудио #1
Идентификатор                            : 1
Формат                                   : MPEG Audio
Версия формата                           : Version 1
Профиль формата                          : Layer 3
Режим                                    : Joint stereo
Расширение режима                        : MS Stereo
Идентификатор кодека                     : 55
Идентификатор кодека/Подсказка           : MP3
Продолжительность                        : 1 ч. 28 м.
Вид битрейта                             : Постоянный
Битрейт                                  : 128 Кбит/сек
Каналы                                   : 2 канала
Частота                                  : 44,1 КГц
Метод сжатия                             : С потерями
Размер потока                            : 81,4 Мбайт (8%)
Выравнивание                             : Разделение по промежуткам
Продолжительность промежутка             : 40  мс. (1,00 видеокадр)
Время предзагрузки промежутка            : 500  мс.

Аудио #2
Идентификатор                            : 2
Формат                                   : MPEG Audio
Версия формата                           : Version 1
Профиль формата                          : Layer 3
Режим                                    : Joint stereo
Расширение режима                        : MS Stereo
Идентификатор кодека                     : 55
Идентификатор кодека/Подсказка           : MP3
Продолжительность                        : 1 ч. 28 м.
Вид битрейта                             : Постоянный
Битрейт                                  : 128 Кбит/сек
Каналы                                   : 2 канала
Частота                                  : 44,1 КГц
Метод сжатия                             : С потерями
Размер потока                            : 81,4 Мбайт (8%)
Выравнивание                             : Разделение по промежуткам
Продолжительность промежутка             : 40  мс. (1,00 видеокадр)
Время предзагрузки промежутка            : 500  мс.

 

Код:

Общее
Полное имя                               : \VERA-4 (RUS)\Vera S04E04 Death of a Family Man(ko136).avi
Формат                                   : AVI
Формат/Информация                        : Audio Video Interleave
Размер файла                             : 899 Мбайт
Продолжительность                        : 1 ч. 28 м.
Общий поток                              : 1426 Кбит/сек
Программа кодирования                    : VirtualDubMod 1.5.10.2 (build 2540/release)
Библиотека кодирования                   : VirtualDubMod build 2540/release

Видео
Идентификатор                            : 0
Формат                                   : MPEG-4 Visual
Профиль формата                          : Advanced Simple@L5
Параметр BVOP формата                    : 2
Параметр QPel формата                    : Нет
Параметр GMC формата                     : Без точки перехода
Параметр матрицы формата                 : Default (H.263)
Идентификатор кодека                     : XVID
Идентификатор кодека/Подсказка           : XviD
Продолжительность                        : 1 ч. 28 м.
Битрейт                                  : 1155 Кбит/сек
Ширина                                   : 852 пикселя
Высота                                   : 480 пикселей
Соотношение сторон                       : 16:9
Частота кадров                           : 25,000 кадров/сек
Цветовое пространство                    : YUV
Субдискретизация насыщенности            : 4:2:0
Битовая глубина                          : 8 бит
Тип развёртки                            : Прогрессивная
Метод сжатия                             : С потерями
Бит/(Пиксели*Кадры)                      : 0.113
Размер потока                            : 728 Мбайт (81%)
Библиотека кодирования                   : XviD 1.1.2 (UTC 2006-11-01)

Аудио #1
Идентификатор                            : 1
Формат                                   : MPEG Audio
Версия формата                           : Version 1
Профиль формата                          : Layer 3
Режим                                    : Joint stereo
Расширение режима                        : MS Stereo
Идентификатор кодека                     : 55
Идентификатор кодека/Подсказка           : MP3
Продолжительность                        : 1 ч. 28 м.
Вид битрейта                             : Постоянный
Битрейт                                  : 128 Кбит/сек
Каналы                                   : 2 канала
Частота                                  : 44,1 КГц
Метод сжатия                             : С потерями
Размер потока                            : 80,7 Мбайт (9%)
Выравнивание                             : Разделение по промежуткам
Продолжительность промежутка             : 40  мс. (1,00 видеокадр)
Время предзагрузки промежутка            : 500  мс.

Аудио #2
Идентификатор                            : 2
Формат                                   : MPEG Audio
Версия формата                           : Version 1
Профиль формата                          : Layer 3
Режим                                    : Joint stereo
Расширение режима                        : MS Stereo
Идентификатор кодека                     : 55
Идентификатор кодека/Подсказка           : MP3
Продолжительность                        : 1 ч. 28 м.
Вид битрейта                             : Постоянный
Битрейт                                  : 128 Кбит/сек
Каналы                                   : 2 канала
Частота                                  : 44,1 КГц
Метод сжатия                             : С потерями
Размер потока                            : 80,7 Мбайт (9%)
Выравнивание                             : Разделение по промежуткам
Продолжительность промежутка             : 40  мс. (1,00 видеокадр)
Время предзагрузки промежутка            : 500  мс.

 
Релиз группы:

Этот торрент недоступен для скачивания без регистрации, однако доступен по публичной magnet-ссылке (источники с публичных трекеров). Перед использованием ссылки прочтите, пожалуйста Пользовательское соглашение, а также как можно дольше оставайтесь на раздаче! Для того, чтобы скачать сам торрент-файл (который видит больше источников), а также для того, чтобы поблагодарить релизера, вам необходимо зарегистрироваться. Если регистрироваться лень - вы можете также попробовать скачать релиз по нашим партнерским ссылкам ниже.

[underverse.su].t57806.torrent
Трекер: Зарегистрирован   [ 03.09.2015 12:32 ]  

Статус: проверено (by makkol at 03.09.2015 14:22)
Поблагодарили: пока никто не поблагодарил...
Тип торрента: публичный - доступные источники с открытых трекеров: 
Размер: 3,5 GB (занимает 0,8 DVDR, для записи нужно 1 болванка DVDR/RW)
 
 
Похожие темы
Форум Тема Автор Торрент Отв. Посл. сооб.
Зарубежные сериалы Вера / Vera / Сезон 1 (1-4 серии из 4) (Уильям Синклер, Питер Хор, Пол Уиттингтон) [2011 г., драма, криминал, детектив, DVDRip] MVO + Original older
33 | 4

0 | 302

5

03.09.2015 06:19

Зарубежные сериалы Вера / Vera / Сезон 2 (1-4 серии из 4) (Уильям Синклер, Питер Хор, Пол Уиттингтон) [2012 г., драма, криминал, детектив, DVDRip] MVO + Original older
18 | 1

0 | 299

4

03.09.2015 06:49

Зарубежные сериалы Вера / Vera / Сезон 3 (1-4 серии из 4) (Уильям Синклер, Питер Хор, Пол Уиттингтон) [2013 г., драма, криминал, детектив, HDTVRip] VO (ko136) + Original older
1 | 0

0 | 323

5

03.09.2015 07:27

Зарубежные сериалы Вера / Vera / Сезон 5 (1-4 серии из 4) (Уильям Синклер, Питер Хор, Пол Уиттингтон) [2015 г., драма, криминал, детектив, HDTVRip] VO (ko136) + Original older
28 | 1

1 | 714

3

14.09.2015 08:11


Яндекс.Метрика powered by Sphinx


В Н И М А Н И Е
Сайт не распространяет и не хранит электронные версии произведений, а лишь бесплатно и без коммерческой выгоды (не требуя взамен платы,
SMS и т.д.) предоставляет доступ к создаваемому пользователями каталогу ссылок на торрент-файлы, которые содержат только списки хеш-сумм.
Убедительная просьба с жалобами обращаться напрямую к пользователю, разместившему торрент файл.

Вверх