Loading...
Error

Вера / Vera / Сезон 1 (1-4 серии из 4) (Уильям Синклер, Питер Хор, Пол Уиттингтон) [2011 г., драма, криминал, детектив, DVDRip] MVO + Original

Статистика раздачи
Размер:  4,34 GB   |    Зарегистрирован:  1 год 3 месяца   |    Скачан:  5 раз

Полного источника не было: 10 месяцев

Сидов:  0  |  0 KB/s  ]   Личеров:  0  |  0 KB/s  ]

* - сиды/пиры с внешних источников

   
 
Автор Сообщение

older Пол:Муж

03-Сен-2015 06:19

Вера / Vera / Сезон 1 (1-4 серии из 4)


Год выпуска: 2011
Жанр: драма, криминал, детектив
Страна: Великобритания
Режиссер: Уильям Синклер, Питер Хор, Пол Уиттингтон
В ролях: Бренда Блетин, Дэвид Леон, Пол Риттер, Джон Моррисон, Вунми Моссаку, Соня Кэссиди
Сюжет фильма:
Главная героиня сериала - старший инспектор криминальной полиции Вера Стенхоуп, которая одержима работой и ведома своими собственными демонами. Если ей одиноко, она не подаст виду и предстанет перед миром с язвительной остротой, лукавинкой в глазах и отвагой. В паре с ней работает надёжный и терпеливый коллега Джо Эшуорт. Вместе они берутся за каждое новое дело с непревзойдённым рвением и профессионализмом.

Качество видео: DVDRip

Продолжительность: ~ 01:28:00
Формат: AVI
Видео: XviD, 720х400, 1342 kbps
Аудио #1: русский, многоголосый закадровый [профессиональный], AC3 2.0, 192 kbps, - телеканал ТВЦ
Аудио #2: английский, оригинал, AC3 2.0, 192 kbps

Код:

Общее
Полное имя                               : \Вера. Сезон 1\1x01 - Hidden Depths (Скрытые глубины).avi
Формат                                   : AVI
Формат/Информация                        : Audio Video Interleave
Размер файла                             : 1,08 Гбайт
Продолжительность                        : 1 ч. 28 м.
Общий поток                              : 1741 Кбит/сек
Название фильма                          : Вера. Сезон 1 / Vera. Season 1 (2011)
Программа кодирования                    : VirtualDubMod 1.5.10.2 (build 2540/release)
Библиотека кодирования                   : VirtualDubMod build 2540/release

Видео
Идентификатор                            : 0
Формат                                   : MPEG-4 Visual
Профиль формата                          : Advanced Simple@L5
Параметр BVOP формата                    : 2
Параметр QPel формата                    : Нет
Параметр GMC формата                     : Без точки перехода
Параметр матрицы формата                 : Default (MPEG)
Идентификатор кодека                     : XVID
Идентификатор кодека/Подсказка           : XviD
Продолжительность                        : 1 ч. 28 м.
Битрейт                                  : 1342 Кбит/сек
Ширина                                   : 720 пикселей
Высота                                   : 400 пикселей
Соотношение сторон                       : 16:9
Частота кадров                           : 25,000 кадров/сек
Цветовое пространство                    : YUV
Субдискретизация насыщенности            : 4:2:0
Битовая глубина                          : 8 бит
Тип развёртки                            : Прогрессивная
Метод сжатия                             : С потерями
Бит/(Пиксели*Кадры)                      : 0.186
Размер потока                            : 852 Мбайт (77%)
Библиотека кодирования                   : XviD 1.1.0 (UTC 2005-11-22)

Аудио #1
Идентификатор                            : 1
Формат                                   : AC-3
Формат/Информация                        : Audio Coding 3
Расширение режима                        : CM (complete main)
Параметр Endianness формата              : Big
Идентификатор кодека                     : 2000
Продолжительность                        : 1 ч. 28 м.
Вид битрейта                             : Постоянный
Битрейт                                  : 192 Кбит/сек
Каналы                                   : 2 канала
Расположение каналов                     : Front: L R
Частота                                  : 48,0 КГц
Битовая глубина                          : 16 бит
Метод сжатия                             : С потерями
Размер потока                            : 122 Мбайт (11%)
Выравнивание                             : Разделение по промежуткам
Продолжительность промежутка             : 40  мс. (1,00 видеокадр)
Время предзагрузки промежутка            : 500  мс.
Заголовок                                : Профессиональный (многоголосый закадровый) ТВЦ

Аудио #2
Идентификатор                            : 2
Формат                                   : AC-3
Формат/Информация                        : Audio Coding 3
Расширение режима                        : CM (complete main)
Параметр Endianness формата              : Big
Идентификатор кодека                     : 2000
Продолжительность                        : 1 ч. 28 м.
Вид битрейта                             : Постоянный
Битрейт                                  : 192 Кбит/сек
Каналы                                   : 2 канала
Расположение каналов                     : Front: L R
Частота                                  : 48,0 КГц
Битовая глубина                          : 16 бит
Метод сжатия                             : С потерями
Размер потока                            : 122 Мбайт (11%)
Выравнивание                             : Разделение по промежуткам
Продолжительность промежутка             : 40  мс. (1,00 видеокадр)
Время предзагрузки промежутка            : 500  мс.
Заголовок                                : Английский

Релиз группы:

picpicpicpicpic
Для увеличения картинки щелкните мышкой по превью

Этот торрент недоступен для скачивания без регистрации, однако доступен по публичной magnet-ссылке (источники с публичных трекеров). Перед использованием ссылки прочтите, пожалуйста Пользовательское соглашение, а также как можно дольше оставайтесь на раздаче! Для того, чтобы скачать сам торрент-файл (который видит больше источников), а также для того, чтобы поблагодарить релизера, вам необходимо зарегистрироваться. Если регистрироваться лень - вы можете также попробовать скачать релиз по нашим партнерским ссылкам ниже.

[underverse.su].t57801.torrent
Трекер: Зарегистрирован   [ 03.09.2015 06:19 ]  

Статус: проверено (by makkol at 03.09.2015 11:59)
Поблагодарили: пока никто не поблагодарил...
Тип торрента: публичный - доступные источники с открытых трекеров: 
Размер: 4,34 GB (занимает 0,99 DVDR, для записи нужно 1 болванка DVDR/RW)
 
 
Похожие темы
Форум Тема Автор Торрент Отв. Посл. сооб.
Зарубежные сериалы Вера / Vera / Сезон 2 (1-4 серии из 4) (Уильям Синклер, Питер Хор, Пол Уиттингтон) [2012 г., драма, криминал, детектив, DVDRip] MVO + Original older
18 | 1

0 | 300

4

03.09.2015 06:49

Зарубежные сериалы Вера / Vera / Сезон 3 (1-4 серии из 4) (Уильям Синклер, Питер Хор, Пол Уиттингтон) [2013 г., драма, криминал, детектив, HDTVRip] VO (ko136) + Original older
1 | 0

0 | 323

5

03.09.2015 07:27

Зарубежные сериалы Вера / Vera / Сезон 4 (1-4 серии из 4) ( Уильям Синклер, Питер Хор, Пол Уиттингтон) [2014 г., драма, криминал, детектив, HDTVRip] VO (ko136) + Original older
0 | 0

0 | 386

6

03.09.2015 12:32

Зарубежные сериалы Вера / Vera / Сезон 5 (1-4 серии из 4) (Уильям Синклер, Питер Хор, Пол Уиттингтон) [2015 г., драма, криминал, детектив, HDTVRip] VO (ko136) + Original older
28 | 1

1 | 714

3

14.09.2015 08:11


Яндекс.Метрика powered by Sphinx


В Н И М А Н И Е
Сайт не распространяет и не хранит электронные версии произведений, а лишь бесплатно и без коммерческой выгоды (не требуя взамен платы,
SMS и т.д.) предоставляет доступ к создаваемому пользователями каталогу ссылок на торрент-файлы, которые содержат только списки хеш-сумм.
Убедительная просьба с жалобами обращаться напрямую к пользователю, разместившему торрент файл.

Вверх