Loading...
Error

Любовная ситуация – это непросто / Situation amoureuse: C'est complique (Родольф Лога, Маню Пайе) [2014 г., мелодрама, комедия, HDRip] MVO

Статистика раздачи
Размер:  1,46 GB   |    Зарегистрирован:  1 год 3 месяца   |    Скачан:  22 раза

Полного источника не было: 23 дня

Сидов:  0  |  0 KB/s  ]   Личеров:  0  |  0 KB/s  ]

* - сиды/пиры с внешних источников

   
 
Автор Сообщение

makkol Пол:Муж

02-Сен-2015 10:52

Любовная ситуация – это непросто / Situation amoureuse: C'est compliqué


Год выпуска: 2014
Жанр: мелодрама, комедия
Производство: Франция [LGM Productions, StudioCanal, D8 Films]
Режиссер: Родольф Лога, Маню Пайе
В ролях: Маню Пайе, Жан-Шарль Клише, Manon Kneusй, Анаис Демустье, Жан Франсуа Кэйри, Филипп Дюкен, Ромейн Леви, Эммануэль Шрики, Гвендолин Гурвенек
Сюжет фильма:
30-летний Бен готовится к скорой свадьбе со своей невестой Джульеттой. Однако неожиданное возвращение в Париж его бывшей одноклассницы Ванессы спутывает парню все планы. В юности Бен был влюблен в девушку, но та совершенно игнорировала его. Теперь же ситуация изменилась, и Ванесса совсем не против близких отношений с ним. Решится ли Бен оставить невесту накануне свадьбы или останется верен ей?..

  • Мировая премьера: 18 января 2014


Качество видео: HDRip

Продолжительность: 01:38:17
Формат: AVI
Видео: XviD, 720x304 (2.35:1), 24.000 fps, 1922 kbps
Аудио: русский, профессиональный многоголосый закадровый (SDI media), AC3 2.0, 48 kHz, 192 kbps

Код:

Общее
Полное имя : Lubovnaya.sityaciya.eto.neprosto.2014.P.HDRip.avi
Формат : AVI
Формат/Информация : Audio Video Interleave
Размер файла : 1,46 Гбайт
Продолжительность : 1 ч. 38 м.
Общий поток : 2124 Кбит/сек
Программа кодирования : VirtualDubMod 1.5.10.2 (build 2540/release)
Библиотека кодирования : VirtualDubMod build 2540/release

Видео
Идентификатор : 0
Формат : MPEG-4 Visual
Профиль формата : Advanced Simple@L5
Параметр BVOP формата : 2
Параметр QPel формата : Нет
Параметр GMC формата : Без точки перехода
Параметр матрицы формата : Default (MPEG)
Идентификатор кодека : XVID
Идентификатор кодека/Подсказка : XviD
Продолжительность : 1 ч. 38 м.
Битрейт : 1922 Кбит/сек
Ширина : 720 пикселей
Высота : 304 пикселя
Соотношение сторон : 2,35:1
Частота кадров : 24,000 кадра/сек
Цветовое пространство : YUV
Субдискретизация насыщенности : 4:2:0
Битовая глубина : 8 бит
Тип развёртки : Прогрессивная
Метод сжатия : С потерями
Бит/(Пиксели*Кадры) : 0.366
Размер потока : 1,32 Гбайт (91%)
Библиотека кодирования : XviD 1.2.1 (UTC 2008-12-04)

Аудио
Идентификатор : 1
Формат : AC-3
Формат/Информация : Audio Coding 3
Расширение режима : CM (complete main)
Параметр Endianness формата : Big
Идентификатор кодека : 2000
Продолжительность : 1 ч. 38 м.
Вид битрейта : Постоянный
Битрейт : 192 Кбит/сек
Каналы : 2 канала
Расположение каналов : Front: L R
Частота : 48,0 КГц
Метод сжатия : С потерями
Размер потока : 135 Мбайт (9%)
Выравнивание : Разделение по промежуткам
Продолжительность промежутка : 42 мс. (1,00 видеокадр)
Время предзагрузки промежутка : 500 мс.
picpicpicpicpic
Для увеличения картинки щелкните мышкой по превью

Этот торрент недоступен для скачивания без регистрации, однако доступен по публичной magnet-ссылке (источники с публичных трекеров). Перед использованием ссылки прочтите, пожалуйста Пользовательское соглашение, а также как можно дольше оставайтесь на раздаче! Для того, чтобы скачать сам торрент-файл (который видит больше источников), а также для того, чтобы поблагодарить релизера, вам необходимо зарегистрироваться. Если регистрироваться лень - вы можете также попробовать скачать релиз по нашим партнерским ссылкам ниже.

[underverse.su].t57781.torrent
Трекер: Зарегистрирован   [ 02.09.2015 10:52 ]  

Статус: проверено (by makkol at 02.09.2015 15:06)
Поблагодарили: пока никто не поблагодарил...
Тип торрента: публичный - доступные источники с открытых трекеров: 
Размер: 1,46 GB (занимает 1/3 DVDR, для записи нужно 1 болванка DVDR/RW)
 
 
Похожие темы
Форум Тема Автор Торрент Отв. Посл. сооб.
Зарубежное кино [HDDVDRip / BDRip / WEB-DL / HDTV 1080/720р] Любовная ситуация – это непросто / Situation amoureuse: C'est complique (Родольф Лога, Маню Пайе) [2014 г., мелодрама, комедия, BDRip 720p] MVO + Original makkol
11 | 2

0 | 422

7

02.09.2015 11:04

Зарубежное кино [HDDVDRip / BDRip / WEB-DL / HDTV 1080/720р] Любовная ситуация – это непросто / Situation amoureuse: C'est complique (Родольф Лога, Маню Пайе) [2014 г., мелодрама, комедия, BDRip 1080p] MVO + Original makkol
1 | 0

0 | 488

9

02.09.2015 11:12


Яндекс.Метрика powered by Sphinx


В Н И М А Н И Е
Сайт не распространяет и не хранит электронные версии произведений, а лишь бесплатно и без коммерческой выгоды (не требуя взамен платы,
SMS и т.д.) предоставляет доступ к создаваемому пользователями каталогу ссылок на торрент-файлы, которые содержат только списки хеш-сумм.
Убедительная просьба с жалобами обращаться напрямую к пользователю, разместившему торрент файл.

Вверх