Loading...
Error

Аббатство Даунтон / Downton Abbey / Сезон 4 (1-8 серии из 8 + Рождественский эпизод) (Брайан Персивал, Дэвид Эванс, Фил Джон) [2013 г., драма, мелодрама, HDRip] MVO + Original

Статистика раздачи
Размер:  5,76 GB   |    Зарегистрирован:  1 год 3 месяца   |    Скачан:  5 раз

Полного источника не было: 4 дня

Сидов:  0  |  0 KB/s  ]   Личеров:  0  |  0 KB/s  ]

* - сиды/пиры с внешних источников

   
 
Автор Сообщение

older Пол:Муж

02-Сен-2015 06:16

Аббатство Даунтон / Downton Abbey / Сезон 4 (1-8 серии)


Год выпуска: 2013
Жанр: драма, мелодрама
Страна: Великобритания , США
Режиссер: Брайан Персивал, Дэвид Эванс, Фил Джон
В ролях: Хью Бонневиль, Джим Картер, Брендан Койл, Элизабет МакГоверн, Мэгги Смит, Эмми Наттел и др.
Сюжет фильма:
1922 год. Продолжение рассказа о жизни семьи Кроули и их слуг. Снова время перемен, позади - бесконечные войны и смутные дни, а впереди новое будущее, надежда на полное восстановление династии.

Качество видео: HDRip

Продолжительность: ~ 01:00:00 (8 серий + Рождественский эпизод)
Формат: AVI
Видео: XviD, 720х400, 1414 kbps
Аудио #1: русский, многоголосый закадровый [профессиональный], MP3 2.0, 128 kbps, - объединение "Русский дубляж"
Аудио #2: английский, оригинал, MP3 2.0, 128 kbps

Код:

Общее
Полное имя                               : \Downton Abbey Season 4 (Домашний)\Downton.Abbey.s04e01.HDRip.rus.eng.Domashniy.avi
Формат                                   : AVI
Формат/Информация                        : Audio Video Interleave
Размер файла                             : 801 Мбайт
Продолжительность                        : 1 ч. 6 м.
Общий поток                              : 1684 Кбит/сек
Программа кодирования                    : VirtualDubMod 1.5.10.3 | www.virtualdub-fr.org || (build 2550/release)
Библиотека кодирования                   : VirtualDubMod build 2550/release

Видео
Идентификатор                            : 0
Формат                                   : MPEG-4 Visual
Профиль формата                          : Advanced Simple@L5
Параметр BVOP формата                    : 2
Параметр QPel формата                    : Нет
Параметр GMC формата                     : Без точки перехода
Параметр матрицы формата                 : Default (MPEG)
Идентификатор кодека                     : XVID
Идентификатор кодека/Подсказка           : XviD
Продолжительность                        : 1 ч. 6 м.
Битрейт                                  : 1414 Кбит/сек
Ширина                                   : 720 пикселей
Высота                                   : 400 пикселей
Соотношение сторон                       : 16:9
Частота кадров                           : 25,000 кадров/сек
Цветовое пространство                    : YUV
Субдискретизация насыщенности            : 4:2:0
Битовая глубина                          : 8 бит
Тип развёртки                            : Прогрессивная
Метод сжатия                             : С потерями
Бит/(Пиксели*Кадры)                      : 0.196
Размер потока                            : 672 Мбайт (84%)
Библиотека кодирования                   : XviD 73

Аудио #1
Идентификатор                            : 1
Формат                                   : MPEG Audio
Версия формата                           : Version 1
Профиль формата                          : Layer 3
Идентификатор кодека                     : 55
Идентификатор кодека/Подсказка           : MP3
Продолжительность                        : 1 ч. 6 м.
Вид битрейта                             : Постоянный
Битрейт                                  : 128 Кбит/сек
Каналы                                   : 2 канала
Частота                                  : 48,0 КГц
Метод сжатия                             : С потерями
Размер потока                            : 60,8 Мбайт (8%)
Выравнивание                             : Соединение по промежуткам
Продолжительность промежутка             : 40  мс. (1,00 видеокадр)
Время предзагрузки промежутка            : 504  мс.
Библиотека кодирования                   : LAME3.99r
Настройки программы                      : -m s -V 4 -q 0 -lowpass 17 -b 128

Аудио #2
Идентификатор                            : 2
Формат                                   : MPEG Audio
Версия формата                           : Version 1
Профиль формата                          : Layer 3
Идентификатор кодека                     : 55
Идентификатор кодека/Подсказка           : MP3
Продолжительность                        : 1 ч. 6 м.
Вид битрейта                             : Постоянный
Битрейт                                  : 128 Кбит/сек
Каналы                                   : 2 канала
Частота                                  : 48,0 КГц
Метод сжатия                             : С потерями
Размер потока                            : 60,8 Мбайт (8%)
Выравнивание                             : Соединение по промежуткам
Продолжительность промежутка             : 40  мс. (1,00 видеокадр)
Время предзагрузки промежутка            : 504  мс.
Библиотека кодирования                   : LAME3.99r
Настройки программы                      : -m s -V 4 -q 0 -lowpass 17 -b 128

Семпл:
Озвучка: Объединение "Русский дубляж", по заказу телеканала Домашний
picpicpicpicpic
Для увеличения картинки щелкните мышкой по превью

Этот торрент недоступен для скачивания без регистрации, однако доступен по публичной magnet-ссылке (источники с публичных трекеров). Перед использованием ссылки прочтите, пожалуйста Пользовательское соглашение, а также как можно дольше оставайтесь на раздаче! Для того, чтобы скачать сам торрент-файл (который видит больше источников), а также для того, чтобы поблагодарить релизера, вам необходимо зарегистрироваться. Если регистрироваться лень - вы можете также попробовать скачать релиз по нашим партнерским ссылкам ниже.

[underverse.su].t57774.torrent
Трекер: Зарегистрирован   [ 02.09.2015 06:16 ]  

Статус: проверено (by makkol at 02.09.2015 10:16)
Поблагодарили: пока никто не поблагодарил...
Тип торрента: публичный - доступные источники с открытых трекеров: 
Размер: 5,76 GB (занимает 1,32 DVDR, для записи нужно 2 болванки DVDR/RW)
 
 
Похожие темы
Форум Тема Автор Торрент Отв. Посл. сооб.
Зарубежные сериалы Аббатство Даунтон / Downton Abbey / Сезон 1 (1-7 серии из 7) (Брайан Персивал, Дэвид Эванс, Фил Джон) [2010 г., драма, мелодрама, HDRip] MVO + Original older
17 | 1

0 | 411

6

01.09.2015 18:38

Зарубежные сериалы Аббатство Даунтон / Downton Abbey / Сезон 2 (1-8 серии из 8 + Рождественский эпизод) (Брайан Персивал, Дэвид Эванс, Фил Джон) [2011 г., драма, мелодрама, HDRip] MVO + Original older
15 | 0

0 | 398

5

02.09.2015 04:41

Зарубежные сериалы Аббатство Даунтон / Downton Abbey / Сезон 3 (1-8 серии из 8 + Рождественский эпизод) (Брайан Персивал, Дэвид Эванс, Фил Джон) [2012 г., драма, мелодрама, HDRip] MVO + Original older
131 | 10

0 | 398

4

02.09.2015 05:40

Зарубежные сериалы Аббатство Даунтон / Downton Abbey / Сезон 5 (1-8 серии из 8 + Рождественский эпизод) (Брайан Персивал, Дэвид Эванс, Фил Джон) [2014 г., драма, мелодрама, WEB-DLRip] MVO (BaibaKo) + Original older
28 | 0

0 | 575

8

02.09.2015 06:38


Яндекс.Метрика powered by Sphinx


В Н И М А Н И Е
Сайт не распространяет и не хранит электронные версии произведений, а лишь бесплатно и без коммерческой выгоды (не требуя взамен платы,
SMS и т.д.) предоставляет доступ к создаваемому пользователями каталогу ссылок на торрент-файлы, которые содержат только списки хеш-сумм.
Убедительная просьба с жалобами обращаться напрямую к пользователю, разместившему торрент файл.

Вверх