Loading...
Error

Аббатство Даунтон / Downton Abbey / Сезон 3 (1-8 серии из 8 + Рождественский эпизод) (Брайан Персивал, Дэвид Эванс, Фил Джон) [2012 г., драма, мелодрама, HDRip] MVO + Original

Статистика раздачи
Размер:  6,18 GB   |    Зарегистрирован:  1 год 3 месяца   |    Скачан:  4 раза

Полного источника не было: 1 день 23 часа

Сидов:  0  |  0 KB/s  ]   Личеров:  0  |  0 KB/s  ]

* - сиды/пиры с внешних источников

   
 
Автор Сообщение

older Пол:Муж

02-Сен-2015 05:40

Аббатство Даунтон / Downton Abbey / Сезон 3 (1-8 серии)


Год выпуска: 2012
Жанр: драма, мелодрама
Страна: Великобритания , США
Режиссер: Брайан Персивал, Дэвид Эванс, Фил Джон
В ролях: Хью Бонневиль, Джим Картер, Брендан Койл, Элизабет МакГоверн, Мэгги Смит, Эмми Наттел и др.
Сюжет фильма:
1912 год. Англия. Наследник титула графа Грэнтэма, живущего с семьей в своем родовом имении Даунтон, погибает на «Титанике». Семья ожидает, что теперь, когда наследников мужского пола не осталось, владения и капитал семьи после смерти графа перейдут к его старшей дочери. Но граф, отдавший всю свою жизнь своему поместью, отказывается отстаивать права юной Мэри, считая, что все, включая немалый капитал его жены, должно отойти к наследнику его графского титула, безвестному дальнему родственнику…

Качество видео: HDRip

Продолжительность: ~ 00:50:00 (8 серий + Рождественский эпизод)
Формат: AVI
Видео: XviD, 720х400, 1295 kbps
Аудио #1: русский, многоголосый закадровый [профессиональный], AC3 2.0, 192 kbps, - объединение "Русский дубляж"
Аудио #2: английский, оригинал, AC3 2.0, 192 kbps

Код:

Общее
Полное имя                               : \Downton.Abbey.s03.hdrip.rus.eng\Downton.Abbey.s03e01.hdrip.rus.eng.avi
Формат                                   : AVI
Формат/Информация                        : Audio Video Interleave
Размер файла                             : 801 Мбайт
Продолжительность                        : 1 ч. 6 м.
Общий поток                              : 1694 Кбит/сек
Программа кодирования                    : VirtualDubMod 1.5.10.2 (build 2540/release)
Библиотека кодирования                   : VirtualDubMod build 2540/release

Видео
Идентификатор                            : 0
Формат                                   : MPEG-4 Visual
Профиль формата                          : Advanced Simple@L5
Параметр BVOP формата                    : 1
Параметр QPel формата                    : Нет
Параметр GMC формата                     : Без точки перехода
Параметр матрицы формата                 : Выборочная
Идентификатор кодека                     : XVID
Идентификатор кодека/Подсказка           : XviD
Продолжительность                        : 1 ч. 6 м.
Битрейт                                  : 1295 Кбит/сек
Ширина                                   : 720 пикселей
Высота                                   : 400 пикселей
Соотношение сторон                       : 16:9
Частота кадров                           : 25,000 кадров/сек
Цветовое пространство                    : YUV
Субдискретизация насыщенности            : 4:2:0
Битовая глубина                          : 8 бит
Тип развёртки                            : Прогрессивная
Метод сжатия                             : С потерями
Бит/(Пиксели*Кадры)                      : 0.180
Размер потока                            : 612 Мбайт (76%)
Библиотека кодирования                   : XviD 73

Аудио #1
Идентификатор                            : 1
Формат                                   : AC-3
Формат/Информация                        : Audio Coding 3
Расширение режима                        : CM (complete main)
Параметр Endianness формата              : Big
Идентификатор кодека                     : 2000
Продолжительность                        : 1 ч. 6 м.
Вид битрейта                             : Постоянный
Битрейт                                  : 192 Кбит/сек
Каналы                                   : 2 канала
Расположение каналов                     : Front: L R
Частота                                  : 48,0 КГц
Битовая глубина                          : 16 бит
Метод сжатия                             : С потерями
Размер потока                            : 90,8 Мбайт (11%)
Выравнивание                             : Разделение по промежуткам
Продолжительность промежутка             : 40  мс. (1,00 видеокадр)
Время предзагрузки промежутка            : 500  мс.

Аудио #2
Идентификатор                            : 2
Формат                                   : AC-3
Формат/Информация                        : Audio Coding 3
Расширение режима                        : CM (complete main)
Параметр Endianness формата              : Big
Идентификатор кодека                     : 2000
Продолжительность                        : 1 ч. 6 м.
Вид битрейта                             : Постоянный
Битрейт                                  : 192 Кбит/сек
Каналы                                   : 2 канала
Расположение каналов                     : Front: L R
Частота                                  : 48,0 КГц
Битовая глубина                          : 16 бит
Метод сжатия                             : С потерями
Размер потока                            : 90,8 Мбайт (11%)
Выравнивание                             : Разделение по промежуткам
Продолжительность промежутка             : 40  мс. (1,00 видеокадр)
Время предзагрузки промежутка            : 500  мс.

Семпл:
Озвучка: Объединение "Русский дубляж", по заказу телеканала Домашний
Сведение звука: FilmGate
Подготовка видео: LegendKiev
picpicpicpicpic
Для увеличения картинки щелкните мышкой по превью

Этот торрент недоступен для скачивания без регистрации, однако доступен по публичной magnet-ссылке (источники с публичных трекеров). Перед использованием ссылки прочтите, пожалуйста Пользовательское соглашение, а также как можно дольше оставайтесь на раздаче! Для того, чтобы скачать сам торрент-файл (который видит больше источников), а также для того, чтобы поблагодарить релизера, вам необходимо зарегистрироваться. Если регистрироваться лень - вы можете также попробовать скачать релиз по нашим партнерским ссылкам ниже.

[underverse.su].t57773.torrent
Трекер: Зарегистрирован   [ 02.09.2015 05:40 ]  

Статус: проверено (by makkol at 02.09.2015 10:15)
Поблагодарили: пока никто не поблагодарил...
Тип торрента: публичный - доступные источники с открытых трекеров: 
Размер: 6,18 GB (занимает 1,41 DVDR, для записи нужно 2 болванки DVDR/RW)
 
 
Похожие темы
Форум Тема Автор Торрент Отв. Посл. сооб.
Зарубежные сериалы Аббатство Даунтон / Downton Abbey / Сезон 1 (1-7 серии из 7) (Брайан Персивал, Дэвид Эванс, Фил Джон) [2010 г., драма, мелодрама, HDRip] MVO + Original older
17 | 1

0 | 411

6

01.09.2015 18:38

Зарубежные сериалы Аббатство Даунтон / Downton Abbey / Сезон 2 (1-8 серии из 8 + Рождественский эпизод) (Брайан Персивал, Дэвид Эванс, Фил Джон) [2011 г., драма, мелодрама, HDRip] MVO + Original older
15 | 0

0 | 398

5

02.09.2015 04:41

Зарубежные сериалы Аббатство Даунтон / Downton Abbey / Сезон 4 (1-8 серии из 8 + Рождественский эпизод) (Брайан Персивал, Дэвид Эванс, Фил Джон) [2013 г., драма, мелодрама, HDRip] MVO + Original older
179 | 18

0 | 450

5

02.09.2015 06:16

Зарубежные сериалы Аббатство Даунтон / Downton Abbey / Сезон 5 (1-8 серии из 8 + Рождественский эпизод) (Брайан Персивал, Дэвид Эванс, Фил Джон) [2014 г., драма, мелодрама, WEB-DLRip] MVO (BaibaKo) + Original older
28 | 0

0 | 575

8

02.09.2015 06:38


Яндекс.Метрика powered by Sphinx


В Н И М А Н И Е
Сайт не распространяет и не хранит электронные версии произведений, а лишь бесплатно и без коммерческой выгоды (не требуя взамен платы,
SMS и т.д.) предоставляет доступ к создаваемому пользователями каталогу ссылок на торрент-файлы, которые содержат только списки хеш-сумм.
Убедительная просьба с жалобами обращаться напрямую к пользователю, разместившему торрент файл.

Вверх