Loading...
Error

Пастушьи ангелы / Cowboy Angels (Ким Массе) [2006 г., драма, DVDRip] VO + Original

Статистика раздачи
Размер:  1,74 GB   |    Зарегистрирован:  1 год 3 месяца   |    Скачан:  2 раза

Полного источника не было: 1 год 1 месяц

Сидов:  0  |  0 KB/s  ]   Личеров:  0  |  0 KB/s  ]

* - сиды/пиры с внешних источников

   
 
Автор Сообщение

makkol Пол:Муж

01-Сен-2015 23:13

Пастушьи ангелы / Cowboy Angels


Год выпуска: 2006
Жанр: драма
Страна: Франция
Режиссер: Ким Массе
В ролях: Диего Местанса, Тьерри Леваре, Франсуаз Кляйн, Стефано Кассетти, Жиль Гастон-Дрейфюс, Ноэли Жиро, Лоран Птиган
Сюжет фильма:
11-летний Пабло живет со своей матерью, ведущей разгульную жизнь, в дешевой гостинице. Однажды, наблюдая за удачливой игрой в покер одного из посетителей кабака, он решает упросить его отвезти в Испанию, где якобы живет его отец. Непросто уговорить водителя, непростая получается поездка, непростые получаются встречи с людьми, которые в жизни Пабло играли очень кратковременную роль. Непростой получается и исход у всего этого вояжа...

  • Мировая премьера: 6 ноября 2006


Перевод: Nike
Озвучивание: Хуан Рохас

Качество видео: DVDRip

Продолжительность: 01:38:01
Формат: AVI
Видео: DivX, 720x388, 25.000 fps, 2139 kbps
Аудио #1: русский, любительский одноголосый закадровый, MP3 2.0, 48 kHz, 192 kbps
Аудио #2: французский, оригинал, MP3 2.0, 48 kHz, 192 kbps

Код:

Общее
Формат : AVI
Формат/Информация : Audio Video Interleave
Размер файла : 1,74 Гбайт
Продолжительность : 1 ч. 38 м.
Общий поток : 2540 Кбит/сек
Программа кодирования : VirtualDubMod 1.5.10.2 (build 2540/release)
Библиотека кодирования : VirtualDubMod build 2540/release

Видео
Идентификатор : 0
Формат : MPEG-4 Visual
Профиль формата : Advanced Simple@L1
Параметр BVOP формата : 2
Параметр QPel формата : Нет
Параметр GMC формата : Без точки перехода
Параметр матрицы формата : Default (H.263)
Идентификатор кодека : divx
Идентификатор кодека/Информация : Mainly used by Google
Идентификатор кодека/Подсказка : DivX
Продолжительность : 1 ч. 38 м.
Битрейт : 2139 Кбит/сек
Ширина : 720 пикс.
Высота : 388 пикс.
Соотношение сторон : 1,856
Частота кадров : 25,000 кадр/сек
Цветовое пространство : YUV
Подвыборка цветности : 4:2:0
Битовая глубина : 8 бит
Тип развёртки : Прогрессивная
Метод сжатия : С потерями
Бит/(Пиксели*Кадры) : 0.306
Размер потока : 1,46 Гбайт (84%)
Библиотека кодирования : Lavc52.37.0

Аудио #1
Идентификатор : 1
Формат : MPEG Audio
Версия формата : Version 1
Профиль формата : Layer 3
Режим : Joint stereo
Идентификатор кодека : 55
Идентификатор кодека/Подсказка : MP3
Продолжительность : 1 ч. 38 м.
Вид битрейта : Постоянный
Битрейт : 192 Кбит/сек
Каналы : 2 канала
Частота : 48,0 КГц
Метод сжатия : С потерями
Размер потока : 135 Мбайт (8%)
Выравнивание : Соединение по промежуткам
Продолжительность промежутка : 40 мс. (1,00 видеокадр)
Время предзагрузки промежутка : 504 ms

Аудио #2
Идентификатор : 2
Формат : MPEG Audio
Версия формата : Version 1
Профиль формата : Layer 3
Режим : Joint stereo
Расширение режима : MS Stereo
Идентификатор кодека : 55
Идентификатор кодека/Подсказка : MP3
Продолжительность : 1 ч. 38 м.
Вид битрейта : Постоянный
Битрейт : 192 Кбит/сек
Каналы : 2 канала
Частота : 48,0 КГц
Метод сжатия : С потерями
Размер потока : 135 Мбайт (8%)
Выравнивание : Соединение по промежуткам
Продолжительность промежутка : 24 мс. (0,60 видеокадр)
Время предзагрузки промежутка : 504 ms
Релиз:

picpicpicpicpic
Для увеличения картинки щелкните мышкой по превью

Этот торрент недоступен для скачивания без регистрации, однако доступен по публичной magnet-ссылке (источники с публичных трекеров). Перед использованием ссылки прочтите, пожалуйста Пользовательское соглашение, а также как можно дольше оставайтесь на раздаче! Для того, чтобы скачать сам торрент-файл (который видит больше источников), а также для того, чтобы поблагодарить релизера, вам необходимо зарегистрироваться. Если регистрироваться лень - вы можете также попробовать скачать релиз по нашим партнерским ссылкам ниже.

[underverse.su].t57767.torrent
Трекер: Зарегистрирован   [ 01.09.2015 23:13 ]  

Статус: проверено (by makkol at 02.09.2015 10:22)
Поблагодарили: пока никто не поблагодарил...
Тип торрента: публичный - доступные источники с открытых трекеров: 
Размер: 1,74 GB (занимает 0,4 DVDR, для записи нужно 1 болванка DVDR/RW)
 
 

Яндекс.Метрика powered by Sphinx


В Н И М А Н И Е
Сайт не распространяет и не хранит электронные версии произведений, а лишь бесплатно и без коммерческой выгоды (не требуя взамен платы,
SMS и т.д.) предоставляет доступ к создаваемому пользователями каталогу ссылок на торрент-файлы, которые содержат только списки хеш-сумм.
Убедительная просьба с жалобами обращаться напрямую к пользователю, разместившему торрент файл.

Вверх