Loading...
Error

Многократное Уничтожение / Overkill (Улли Ломмель, Дэвид Скотт Крёз) [1987 г., боевик, триллер, криминал, DVDRip] AVO

Статистика раздачи
Размер:  1,45 GB   |    Зарегистрирован:  1 год 3 месяца   |    Скачан:  7 раз

Полного источника не было: 1 год 1 месяц

Сидов:  0  |  0 KB/s  ]   Личеров:  0  |  0 KB/s  ]

* - сиды/пиры с внешних источников

   
 
Автор Сообщение

makkol Пол:Муж

01-Сен-2015 22:48

Многократное Уничтожение / Overkill


Год выпуска: 1987
Жанр: боевик, триллер, криминал
Производство: США [Manson International Pictures, United Independent Pictures Ltd.]
Режиссер: Улли Ломмель, Дэвид Скотт Крёз
В ролях: Стив Рэлли, Джон Нишио, Лаура Буркетт, Крис Ташима,Элен Вич, Мишель Бауэр, , Куки Ломмель, , Антонио Каприо, Гинси Моз
Сюжет фильма:
Действие происходит в районе "Маленький Токио" Лос-Анжелеса. В центре этой отчаянной криминальной драмы - попытка выгнать якудзу из города. Но сначала главный герой, детектив Делано, должен доказать причастность японской мафии к беспорядкам и убийствам. Все его попытки сделать это терпят неудачу до тех пор, пока он не знакомится с Акаши, токийским полицейским, который хорошо знаком с этой криминальной групировкой.

  • Мировая премьера: 15 декабря 1987


Качество видео: DVDRip

Продолжительность: 01:21:15
Формат: AVI
Видео: XviD, 640x480 (4:3), 2358 kbps
Аудио: русский, авторский одноголосый закадровый (М.Иванов), AC3 2.0, 192 kbps

Код:

Complete name Многократное уничтожение 1987.avi
Format : AVI
Format/Info : Audio Video Interleave
File size : 1.45 GiB
Duration : 1h 21mn
Overall bit rate : 2 559 Kbps
Writing library : VirtualDub build 35491/release

Video
ID : 0
Format : MPEG-4 Visual
Format profile : Advanced Simple@L5
Format settings, BVOP : 1
Format settings, QPel : No
Format settings, GMC : No warppoints
Format settings, Matrix : Default (MPEG)
Codec ID : XVID
Codec ID/Hint : XviD
Duration : 1h 21mn
Bit rate : 2 358 Kbps
Width : 640 pixels
Height : 480 pixels
Display aspect ratio : 4:3
Frame rate : 23.976 fps
Color space : YUV
Chroma subsampling : 4:2:0
Bit depth : 8 bits
Scan type : Progressive
Compression mode : Lossy
Bits/(Pixel*Frame) : 0.320
Stream size : 1.34 GiB (92%)
Writing library : XviD 1.2.1 (UTC 2008-12-04)

Audio
ID : 1
Format : AC-3
Format/Info : Audio Coding 3
Mode extension : CM (complete main)
Format settings, Endianness : Big
Codec ID : 2000
Duration : 1h 21mn
Bit rate mode : Constant
Bit rate : 192 Kbps
Channel(s) : 2 channels
Channel positions : Front: L R
Sampling rate : 48.0 KHz
Compression mode : Lossy
Stream size : 112 MiB (8%)
Alignment : Aligned on interleaves
Interleave, duration : 42 ms (1.00 video frame)
Interleave, preload duratio : 512 ms
picpicpicpicpic
Для увеличения картинки щелкните мышкой по превью

Этот торрент недоступен для скачивания без регистрации, однако доступен по публичной magnet-ссылке (источники с публичных трекеров). Перед использованием ссылки прочтите, пожалуйста Пользовательское соглашение, а также как можно дольше оставайтесь на раздаче! Для того, чтобы скачать сам торрент-файл (который видит больше источников), а также для того, чтобы поблагодарить релизера, вам необходимо зарегистрироваться. Если регистрироваться лень - вы можете также попробовать скачать релиз по нашим партнерским ссылкам ниже.

[underverse.su].t57766.torrent
Трекер: Зарегистрирован   [ 01.09.2015 22:48 ]  

Статус: проверено (by makkol at 02.09.2015 10:21)
Поблагодарили: пока никто не поблагодарил...
Тип торрента: публичный - доступные источники с открытых трекеров: 
Размер: 1,45 GB (занимает 1/3 DVDR, для записи нужно 1 болванка DVDR/RW)
 
 

Яндекс.Метрика powered by Sphinx


В Н И М А Н И Е
Сайт не распространяет и не хранит электронные версии произведений, а лишь бесплатно и без коммерческой выгоды (не требуя взамен платы,
SMS и т.д.) предоставляет доступ к создаваемому пользователями каталогу ссылок на торрент-файлы, которые содержат только списки хеш-сумм.
Убедительная просьба с жалобами обращаться напрямую к пользователю, разместившему торрент файл.

Вверх