Loading...
Error

Тутанхамон / Tut / Сезон 1 (1-6 серии из 6) (Дэвид Фон Энкен) [2015 г., драма, биография, история, WEB-DLRip] MVO

Статистика раздачи
Размер:  3,13 GB   |    Зарегистрирован:  1 год 3 месяца   |    Скачан:  11 раз

Полного источника не было: 27 дней

Сидов:  0  |  0 KB/s  ]   Личеров:  0  |  0 KB/s  ]

* - сиды/пиры с внешних источников

   
 
Автор Сообщение

older Пол:Муж

01-Сен-2015 16:31

Тутанхамон / Tut / Сезон 1 (1-6 серии из 6)


Год выпуска: 2015
Жанр: драма, биография, история
Страна: Канада
Режиссер: Дэвид Фон Энкен
В ролях: Бен Кингсли, Эван Джогиа, Нонсо Анози, Сибулла Дин, Александр Сиддиг, Кайли Банбери, Питер Гадиот, Иддо Голдберг, Алистэр Туви, Сайлас Карсон
Сюжет фильма:
Мини-сериал рассказывает о том, как Тутанхамон совершал свое восхождение к власти и славе в то время, как его советники, друзья и любимые плели интриги во имя своих подлых интересов. Душераздирающие романы, эпические сражения, политические игры, тайные заговоры, ревность и убийства — все это сопровождало самого молодого египетского царя на пути к величию.

Качество видео: WEB-DLRip

Продолжительность: ~ 00:45:00
Формат: AVI
Видео: XviD, 720х400, 1499 kbps
Аудио: русский, многоголосый закадровый [профессиональный], AC3 2.0, 192 kbps, - IdeaFilm

Код:

Общее
Полное имя                               : \TYt.s01e.WEB-DLRip.IdeaFilm\TYt.s01e01-02.WEB-DLRip.IdeaFilm.avi
Формат                                   : AVI
Формат/Информация                        : Audio Video Interleave
Размер файла                             : 1,05 Гбайт
Продолжительность                        : 1 ч. 28 м.
Общий поток                              : 1700 Кбит/сек
Программа кодирования                    : VirtualDubMod 1.5.10.2 (build 2540/release)
Библиотека кодирования                   : VirtualDubMod build 2540/release

Видео
Идентификатор                            : 0
Формат                                   : MPEG-4 Visual
Профиль формата                          : Advanced Simple@L5
Параметр BVOP формата                    : 2
Параметр QPel формата                    : Нет
Параметр GMC формата                     : Без точки перехода
Параметр матрицы формата                 : Выборочная
Идентификатор кодека                     : XVID
Идентификатор кодека/Подсказка           : XviD
Продолжительность                        : 1 ч. 28 м.
Битрейт                                  : 1499 Кбит/сек
Ширина                                   : 720 пикселей
Высота                                   : 400 пикселей
Соотношение сторон                       : 16:9
Частота кадров                           : 23,976 кадра/сек
Цветовое пространство                    : YUV
Субдискретизация насыщенности            : 4:2:0
Битовая глубина                          : 8 бит
Тип развёртки                            : Прогрессивная
Метод сжатия                             : С потерями
Бит/(Пиксели*Кадры)                      : 0.217
Размер потока                            : 950 Мбайт (88%)
Библиотека кодирования                   : XviD 1.2.1 (UTC 2008-12-04)

Аудио
Идентификатор                            : 1
Формат                                   : AC-3
Формат/Информация                        : Audio Coding 3
Расширение режима                        : CM (complete main)
Параметр Endianness формата              : Big
Идентификатор кодека                     : 2000
Продолжительность                        : 1 ч. 28 м.
Вид битрейта                             : Постоянный
Битрейт                                  : 192 Кбит/сек
Каналы                                   : 2 канала
Расположение каналов                     : Front: L R
Частота                                  : 48,0 КГц
Битовая глубина                          : 16 бит
Метод сжатия                             : С потерями
Задержка видео                           : 16 мс.
Размер потока                            : 122 Мбайт (11%)
Выравнивание                             : Разделение по промежуткам
Продолжительность промежутка             : 42  мс. (1,00 видеокадр)
Время предзагрузки промежутка            : 500  мс.

Релиз группы: IdeaFilm

picpicpicpicpic
Для увеличения картинки щелкните мышкой по превью

Этот торрент недоступен для скачивания без регистрации, однако доступен по публичной magnet-ссылке (источники с публичных трекеров). Перед использованием ссылки прочтите, пожалуйста Пользовательское соглашение, а также как можно дольше оставайтесь на раздаче! Для того, чтобы скачать сам торрент-файл (который видит больше источников), а также для того, чтобы поблагодарить релизера, вам необходимо зарегистрироваться. Если регистрироваться лень - вы можете также попробовать скачать релиз по нашим партнерским ссылкам ниже.

[underverse.su].t57755.torrent
Трекер: Зарегистрирован   [ 01.09.2015 16:31 ]  

Статус: проверено (by makkol at 01.09.2015 21:57)
Поблагодарили: пока никто не поблагодарил...
Тип торрента: публичный - доступные источники с открытых трекеров: 
Размер: 3,13 GB (занимает 0,72 DVDR, для записи нужно 1 болванка DVDR/RW)
 
 

Яндекс.Метрика powered by Sphinx


В Н И М А Н И Е
Сайт не распространяет и не хранит электронные версии произведений, а лишь бесплатно и без коммерческой выгоды (не требуя взамен платы,
SMS и т.д.) предоставляет доступ к создаваемому пользователями каталогу ссылок на торрент-файлы, которые содержат только списки хеш-сумм.
Убедительная просьба с жалобами обращаться напрямую к пользователю, разместившему торрент файл.

Вверх