Loading...
Error

Месье Папа / Monsieur Papa (Кад Мерад) [2011 г., комедия, HDRip] MVO

Статистика раздачи
Размер:  1,37 GB   |    Зарегистрирован:  1 год 3 месяца   |    Скачан:  17 раз

Полного источника не было: 10 месяцев

Сидов:  0  |  0 KB/s  ]   Личеров:  0  |  0 KB/s  ]

* - сиды/пиры с внешних источников

   
 
Автор Сообщение

makkol Пол:Муж

01-Сен-2015 14:47

Месье Папа / Monsieur Papa


Год выпуска: 2011
Жанр: комедия
Производство: Франция [Arcadia, Banque Populaire Images 10, Bel Ombre Films, Canal+ [fr], Ciné Cinémas, Cinémage 4, Eskwad, M6, M6 Films, Pathé, Produire à Paris, W9]
Режиссер: Кад Мерад
В ролях: Мишель Ларок, Кад Мерад, Гаспар Мейер, Джудит Эль Зейн, Венсан Перес, Мириам Буайе, Флоренс Мори, Жак Балютен, Оливье Барру, Патрик Боннель, Кловис Корнийяк, Эммануэль Коссо, Арно Дюлери, Жак Эрлен, Кристоф Курочкин, Пьер Лаплас, Бернар Ле Кок, Франсис Рено
Сюжет фильма:
Мариусу — 12, он не знает отца и сильно по нему скучает. Его мать — топ-менеджер в крупной фирме и все время пропадает на работе. Она вынуждена предпринять хоть что-то, чтобы успокоить сына. В конце концов, она решает нанять безработного, чтобы тот сыграл роль отца для Мариуса. Но, конечно, все пойдет абсолютно не по ее плану…

  • Мировая премьера: 17 апреля 2011


Качество видео: HDRip

Продолжительность: 01:25:41
Формат: AVI
Видео: XviD, 720x384 (1.85:1), 24.000 fps, 1989 kbps
Аудио: русский, профессиональный многоголосый закадровый (официальный), AC3 2.0, 48 kHz, 192 kbps

Код:

Общее
Полное имя                               : Mesje.Papa.2011.P.HDRip.avi
Формат                                   : AVI
Формат/Информация                        : Audio Video Interleave
Размер файла                             : 1,37 Гбайт
Продолжительность                        : 1 ч. 29 м.
Общий поток                              : 2191 Кбит/сек
Программа кодирования                    : VirtualDubMod 1.5.10.2 (build 2540/release)
Библиотека кодирования                   : VirtualDubMod build 2540/release

Видео
Идентификатор                            : 0
Формат                                   : MPEG-4 Visual
Профиль формата                          : Advanced Simple@L5
Параметр BVOP формата                    : 2
Параметр QPel формата                    : Нет
Параметр GMC формата                     : Без точки перехода
Параметр матрицы формата                 : Default (MPEG)
Идентификатор кодека                     : XVID
Идентификатор кодека/Подсказка           : XviD
Продолжительность                        : 1 ч. 29 м.
Битрейт                                  : 1989 Кбит/сек
Ширина                                   : 720 пикселей
Высота                                   : 384 пикселя
Соотношение сторон                       : 1,85:1
Частота кадров                           : 24,000 кадра/сек
Цветовое пространство                    : YUV
Субдискретизация насыщенности            : 4:2:0
Битовая глубина                          : 8 бит
Тип развёртки                            : Прогрессивная
Метод сжатия                             : С потерями
Бит/(Пиксели*Кадры)                      : 0.287
Размер потока                            : 1,18 Гбайт (91%)
Библиотека кодирования                   : XviD 1.2.1 (UTC 2008-12-04)

Аудио
Идентификатор                            : 1
Формат                                   : AC-3
Формат/Информация                        : Audio Coding 3
Расширение режима                        : CM (complete main)
Параметр Endianness формата              : Big
Идентификатор кодека                     : 2000
Продолжительность                        : 1 ч. 29 м.
Вид битрейта                             : Постоянный
Битрейт                                  : 192 Кбит/сек
Каналы                                   : 2 канала
Расположение каналов                     : Front: L R
Частота                                  : 48,0 КГц
Метод сжатия                             : С потерями
Размер потока                            : 123 Мбайт (9%)
Выравнивание                             : Разделение по промежуткам
picpicpicpicpic
Для увеличения картинки щелкните мышкой по превью

Этот торрент недоступен для скачивания без регистрации, однако доступен по публичной magnet-ссылке (источники с публичных трекеров). Перед использованием ссылки прочтите, пожалуйста Пользовательское соглашение, а также как можно дольше оставайтесь на раздаче! Для того, чтобы скачать сам торрент-файл (который видит больше источников), а также для того, чтобы поблагодарить релизера, вам необходимо зарегистрироваться. Если регистрироваться лень - вы можете также попробовать скачать релиз по нашим партнерским ссылкам ниже.

[underverse.su].t57752.torrent
Трекер: Зарегистрирован   [ 01.09.2015 14:47 ]  

Статус: проверено (by makkol at 01.09.2015 15:44)
Поблагодарили: пока никто не поблагодарил...
Тип торрента: публичный - доступные источники с открытых трекеров: 
Размер: 1,37 GB (занимает 0,31 DVDR, для записи нужно 1 болванка DVDR/RW)
 
 

Яндекс.Метрика powered by Sphinx


В Н И М А Н И Е
Сайт не распространяет и не хранит электронные версии произведений, а лишь бесплатно и без коммерческой выгоды (не требуя взамен платы,
SMS и т.д.) предоставляет доступ к создаваемому пользователями каталогу ссылок на торрент-файлы, которые содержат только списки хеш-сумм.
Убедительная просьба с жалобами обращаться напрямую к пользователю, разместившему торрент файл.

Вверх