Loading...
Error

Свидетели / Les temoins / Сезон 1 (1-6 серии из 6) (Эрве Адмар) [2014 г., криминал, HDTVRip] MVO

Статистика раздачи
Размер:  4,1 GB   |    Зарегистрирован:  1 год 3 месяца   |    Скачан:  4 раза

Полного источника не было: 6 месяцев

Сидов:  0  |  0 KB/s  ]   Личеров:  0  |  0 KB/s  ]

* - сиды/пиры с внешних источников

   
 
Автор Сообщение

older Пол:Муж

01-Сен-2015 14:39

Свидетели / Les temoins / Сезон 1 (1-6 серии из 6)


Год выпуска: 2014
Жанр: криминал
Страна: Бельгия , Франция
Режиссер: Эрве Адмар
В ролях: Тьерри Лермитт, Мари Домпнье, Лоран Люка, Ян Хамменекер, Катрин Муше, Роксана Дюран, Мехди Неббу, Фредерик Бурали, Жоэль Равон, Тома Доре
Сюжет фильма:
Могилы осквернены, тела выкопаны и оставлены в выставочных образцах домов… Вместе с телами оставлена фотография Поля Мезоневра, некогда выдающегося сотрудника криминальной полиции севера Франции. Страшные находки заставляют пенсионера вернуться к работе. Девушка-детектив Сандра Уинклер приступает к этому мрачному делу вместе с ним. В расследовании ей придется обратиться к прошлому Поля, поскольку именно в нем могут крыться корни преступлений.

Качество видео: HDTVRip

Продолжительность: ~ 00:50:00
Формат: AVI
Видео: XviD, 720х400, 1660 kbps
Аудио: русский, многоголосый закадровый [профессиональный], AC3 2.0, 192 kbps, - Эй Би Видео

Код:

Общее
Полное имя                               : \Les témoins (S01) Эй Би Видео\Svideteli.S01E02.avi
Формат                                   : AVI
Формат/Информация                        : Audio Video Interleave
Размер файла                             : 700 Мбайт
Продолжительность                        : 50 м.
Общий поток                              : 1938 Кбит/сек
Программа кодирования                    : VirtualDubMod 1.5.10.2 (build 2540/release)
Библиотека кодирования                   : VirtualDubMod build 2540/release

Видео
Идентификатор                            : 0
Формат                                   : MPEG-4 Visual
Профиль формата                          : Advanced Simple@L5
Параметр BVOP формата                    : 2
Параметр QPel формата                    : Нет
Параметр GMC формата                     : Без точки перехода
Параметр матрицы формата                 : Default (MPEG)
Идентификатор кодека                     : XVID
Идентификатор кодека/Подсказка           : XviD
Продолжительность                        : 50 м.
Битрейт                                  : 1660 Кбит/сек
Ширина                                   : 720 пикселей
Высота                                   : 400 пикселей
Соотношение сторон                       : 16:9
Частота кадров                           : 25,000 кадров/сек
Цветовое пространство                    : YUV
Субдискретизация насыщенности            : 4:2:0
Битовая глубина                          : 8 бит
Тип развёртки                            : Прогрессивная
Метод сжатия                             : С потерями
Бит/(Пиксели*Кадры)                      : 0.231
Размер потока                            : 600 Мбайт (86%)
Библиотека кодирования                   : XviD 1.2.1 (UTC 2008-12-04)

Аудио
Идентификатор                            : 1
Формат                                   : AC-3
Формат/Информация                        : Audio Coding 3
Расширение режима                        : CM (complete main)
Параметр Endianness формата              : Big
Идентификатор кодека                     : 2000
Продолжительность                        : 50 м.
Вид битрейта                             : Постоянный
Битрейт                                  : 192 Кбит/сек
Каналы                                   : 2 канала
Расположение каналов                     : Front: L R
Частота                                  : 48,0 КГц
Битовая глубина                          : 16 бит
Метод сжатия                             : С потерями
Размер потока                            : 69,3 Мбайт (10%)
Выравнивание                             : Разделение по промежуткам

Релиз группы: Эй Би Видео

picpicpicpicpic
Для увеличения картинки щелкните мышкой по превью

Этот торрент недоступен для скачивания без регистрации, однако доступен по публичной magnet-ссылке (источники с публичных трекеров). Перед использованием ссылки прочтите, пожалуйста Пользовательское соглашение, а также как можно дольше оставайтесь на раздаче! Для того, чтобы скачать сам торрент-файл (который видит больше источников), а также для того, чтобы поблагодарить релизера, вам необходимо зарегистрироваться. Если регистрироваться лень - вы можете также попробовать скачать релиз по нашим партнерским ссылкам ниже.

[underverse.su].t57751.torrent
Трекер: Зарегистрирован   [ 01.09.2015 14:39 ]  

Статус: проверено (by makkol at 01.09.2015 15:28)
Поблагодарили: пока никто не поблагодарил...
Тип торрента: публичный - доступные источники с открытых трекеров: 
Размер: 4,1 GB (занимает 0,94 DVDR, для записи нужно 1 болванка DVDR/RW)
 
 
Похожие темы
Форум Тема Автор Торрент Отв. Посл. сооб.
Зарубежное кино [DVDRip, Low-Res HDRip, и т.д.] Свидетели должны замолчать / Breakout (Дэмиан Ли) [2013 г., боевик, триллер, DVDRip] MVO Паукан
11 | 0

0 | 1148

40

12.09.2013 06:55


Яндекс.Метрика powered by Sphinx


В Н И М А Н И Е
Сайт не распространяет и не хранит электронные версии произведений, а лишь бесплатно и без коммерческой выгоды (не требуя взамен платы,
SMS и т.д.) предоставляет доступ к создаваемому пользователями каталогу ссылок на торрент-файлы, которые содержат только списки хеш-сумм.
Убедительная просьба с жалобами обращаться напрямую к пользователю, разместившему торрент файл.

Вверх