Loading...
Error

Когда мне было 5 лет, я покончил с собой / Quand j'avais 5 ans je m'ai tue (Жан-Клод Сюссфельд) [1994 г., драма, VHSRip] DVO + Original

Статистика раздачи
Размер:  1,39 GB   |    Зарегистрирован:  1 год 3 месяца   |    Скачан:  8 раз

Полного источника не было: 1 год

Сидов:  0  |  0 KB/s  ]   Личеров:  0  |  0 KB/s  ]

* - сиды/пиры с внешних источников

   
 
Автор Сообщение

makkol Пол:Муж

31-Авг-2015 11:38

Когда мне было 5 лет, я покончил с собой / Quand j'avais 5 ans je m'ai tué


Год выпуска: 1994
Жанр: драма
Производство: Франция [Alicéléo, Les Films Galaxie, Lumière]
Режиссер: Жан-Клод Сюссфельд
В ролях: Ипполит Жирардо, Патрик Бушите, Саломе Лелуш, Дмитрий Ружёль, Анни Роман, Франсуа Клавье, Клод Дюнетон, Людовик Гадуа, Раймонда Эдлин
Сюжет фильма:
Шестидесятые годы ХХ века. Восьмилетний мальчик, фантазер и мечтатель, страстно влюблен в Джессику, ученицу его класса. Эта любовь послужила причиной, по которой родители поместили его в клинику для детей с отклонениями в психике. Это история о дружбе и влюбленности двух маленьких человечков. Очень трогательная, чистая и трепетная. Взрослые люди прошлись тяжелыми ботинками по детским душам, но они, вопреки всему, продолжают любить и ждать друг-друга...

  • Мировая премьера: 2 февраля 1994


Качество видео: VHSRip

Продолжительность: 01:34:02
Формат: AVI
Видео: XviD, 720x304 (2.35:1), 25.000 fps, 1725 kbps
Аудио #1: русский, любительский двухголосый закадровый, MP3 2.0, 48 kHz, 192 kbps
Аудио #2: французский, оригинал, MP3 2.0, 48 kHz, 192 kbps

Код:

General
Complete name : Quand.j'avais.5.ans.je.m'ai.tue.VHSRip.rus.fra.avi
Format : AVI
Format/Info : Audio Video Interleave
File size : 1.39 GiB
Duration : 1h 34mn
Overall bit rate : 2 123 Kbps
Writing application : VirtualDubModRus 1.5.10.2 (build 2540/release)
Writing library : VirtualDubMod build 2540/release

Video
ID : 0
Format : MPEG-4 Visual
Format profile : Advanced Simple@L5
Format settings, BVOP : Yes
Format settings, QPel : No
Format settings, GMC : No warppoints
Format settings, Matrix : Default (MPEG)
Codec ID : XVID
Codec ID/Hint : XviD
Duration : 1h 34mn
Bit rate : 1 725 Kbps
Width : 720 pixels
Height : 304 pixels
Display aspect ratio : 2.35:1
Frame rate : 25.000 fps
Color space : YUV
Chroma subsampling : 4:2:0
Bit depth : 8 bits
Scan type : Progressive
Bits/(Pixel*Frame) : 0.315
Stream size : 1.13 GiB (81%)
Writing library : XviD 1.2.1 (UTC 2008-12-04)

Audio #1
ID : 1
Format : MPEG Audio
Format version : Version 1
Format profile : Layer 3
Mode : Joint stereo
Codec ID : 55
Codec ID/Hint : MP3
Duration : 1h 34mn
Bit rate mode : Constant
Bit rate : 192 Kbps
Channel(s) : 2 channels
Sampling rate : 48.0 KHz
Stream size : 129 MiB (9%)
Alignment : Aligned on interleaves
Interleave, duration : 40 ms (1.00 video frame)
Interleave, preload duration : 504 ms

Audio #2
ID : 2
Format : MPEG Audio
Format version : Version 1
Format profile : Layer 3
Mode : Joint stereo
Codec ID : 55
Codec ID/Hint : MP3
Duration : 1h 34mn
Bit rate mode : Constant
Bit rate : 192 Kbps
Channel(s) : 2 channels
Sampling rate : 48.0 KHz
Stream size : 129 MiB (9%)
Alignment : Aligned on interleaves
Interleave, duration : 40 ms (1.00 video frame)
Interleave, preload duration : 504 ms
Совместный релиз: Киноклуб Мувитролль и Кинопортал Близзард
Перевод: Ирина Урманова
Озвучание: Ирина Урманова и Вячеслав Прошин
picpicpicpicpic
Для увеличения картинки щелкните мышкой по превью

Этот торрент недоступен для скачивания без регистрации, однако доступен по публичной magnet-ссылке (источники с публичных трекеров). Перед использованием ссылки прочтите, пожалуйста Пользовательское соглашение, а также как можно дольше оставайтесь на раздаче! Для того, чтобы скачать сам торрент-файл (который видит больше источников), а также для того, чтобы поблагодарить релизера, вам необходимо зарегистрироваться. Если регистрироваться лень - вы можете также попробовать скачать релиз по нашим партнерским ссылкам ниже.

[underverse.su].t57692.torrent
Трекер: Зарегистрирован   [ 31.08.2015 11:38 ]  

Статус: проверено (by makkol at 31.08.2015 12:06)
Поблагодарили: 1 человек
Тип торрента: публичный - доступные источники с открытых трекеров: 
Размер: 1,39 GB (занимает 0,32 DVDR, для записи нужно 1 болванка DVDR/RW)
 
 

Яндекс.Метрика powered by Sphinx


В Н И М А Н И Е
Сайт не распространяет и не хранит электронные версии произведений, а лишь бесплатно и без коммерческой выгоды (не требуя взамен платы,
SMS и т.д.) предоставляет доступ к создаваемому пользователями каталогу ссылок на торрент-файлы, которые содержат только списки хеш-сумм.
Убедительная просьба с жалобами обращаться напрямую к пользователю, разместившему торрент файл.

Вверх