Loading...
Error

Загнанные лошади / Broken Horses (Видху Винод Чопра) [2015 г., триллер, драма, криминал, детектив, WEB-DLRip] MVO

Статистика раздачи
Размер:  1,46 GB   |    Зарегистрирован:  1 год 3 месяца   |    Скачан:  27 раз

Полного источника не было: 8 дней

Сидов:  0  |  0 KB/s  ]   Личеров:  0  |  0 KB/s  ]

* - сиды/пиры с внешних источников

   
 
Автор Сообщение

makkol Пол:Муж

30-Авг-2015 23:23

Загнанные лошади / Broken Horses


Год выпуска: 2015
Жанр: триллер, драма, криминал, детектив
Производство: США [Reliance Entertainment, Vinod Chopra Productions]
Режиссер: Видху Винод Чопра
В ролях: Антон Ельчин, Крис Маркетт, Винсент Д’Онофрио, Мария Вальверде, Томас Джейн, Шон Патрик Флэнери, Фрэнк М. Эхерн, Сэди Александру, Scott Aschenbrenner, Чэд Грибель
Сюжет фильма:
Драматическая картина с криминальным подтекстом. Жизнь на границе Мексики и Америки никогда не была простой. Банды с лёгкостью пересекают допустимые пределы, ведь для них есть свои поблажки со стороны властей, так как зачастую на разборки местного криминалитета проще закрыть глаза. Герой картины возвращается домой. У него впереди радостное событие - бракосочетание с любимой девушкой. Свадьба обещает стать одним из грандиозных событий по меркам местных жителей, особенно учитывая красоту невесты. По возвращении домой, молодой человек встречается со своим братом. Он преподносит ему свадебный подарок в виде небольшого домика и мини-ранчо. Слишком шикарный презент, который трудно принять, брат всё же не отвергает. К тому же, его избраннице нравится верховая езда. События протекают куда драматичней. Герой узнает, что брат попал под влияние криминального мира. Он связан с ужасными людьми, вынуждающими идти на нечестные и порой чудовищные поступки. Конечно, драма достигает своего пика, когда отступившемуся брату предлагают убрать своего родственника и его новоиспечённую супругу. Сможет ли он свернуть с плохой стези или всё-таки предаст.

  • Мировая премьера: 9 апреля 2015


Качество видео: WEB-DLRip

Продолжительность: 01:40:37
Формат: AVI
Видео: XviD, 720x304 (2.35:1), 23.976 fps, 1681 kbps
Аудио: русский, профессиональный многоголосый закадровый (iTunes), AC3 5.1, 48 kHz, 384 kbps

Код:

Общее
Полное имя : 3agHaHHYe.L0shad1.2015.P.WEB-DLRip.1.46Gb.avi
Формат : AVI
Формат/Информация : Audio Video Interleave
Размер файла : 1,46 Гбайт
Продолжительность : 1 ч. 40 м.
Общий поток : 2074 Кбит/сек
Программа кодирования : VirtualDubMod 1.5.10.3 | (build 2550/release)
Библиотека кодирования : VirtualDubMod build 2550/release

Видео
Идентификатор : 0
Формат : MPEG-4 Visual
Профиль формата : Advanced Simple@L5
Параметр BVOP формата : 2
Параметр QPel формата : Нет
Параметр GMC формата : Без точки перехода
Параметр матрицы формата : Default (MPEG)
Идентификатор кодека : XVID
Идентификатор кодека/Подсказка : XviD
Продолжительность : 1 ч. 40 м.
Битрейт : 1681 Кбит/сек
Ширина : 720 пикселей
Высота : 304 пикселя
Соотношение сторон : 2,35:1
Частота кадров : 23,976 кадра/сек
Цветовое пространство : YUV
Субдискретизация насыщенности : 4:2:0
Битовая глубина : 8 бит
Тип развёртки : Прогрессивная
Метод сжатия : С потерями
Бит/(Пиксели*Кадры) : 0.320
Размер потока : 1,18 Гбайт (81%)
Библиотека кодирования : XviD 1.2.1 (UTC 2008-12-04)

Аудио
Идентификатор : 1
Формат : AC-3
Формат/Информация : Audio Coding 3
Расширение режима : CM (complete main)
Параметр Endianness формата : Big
Идентификатор кодека : 2000
Продолжительность : 1 ч. 40 м.
Вид битрейта : Постоянный
Битрейт : 384 Кбит/сек
Каналы : 6 каналов
Расположение каналов : Front: L C R, Side: L R, LFE
Частота : 48,0 КГц
Метод сжатия : С потерями
Размер потока : 276 Мбайт (19%)
Выравнивание : Разделение по промежуткам
Продолжительность промежутка : 42 мс. (1,00 видеокадр)
Время предзагрузки промежутка : 500 мс.
picpicpicpicpic
Для увеличения картинки щелкните мышкой по превью

Этот торрент недоступен для скачивания без регистрации, однако доступен по публичной magnet-ссылке (источники с публичных трекеров). Перед использованием ссылки прочтите, пожалуйста Пользовательское соглашение, а также как можно дольше оставайтесь на раздаче! Для того, чтобы скачать сам торрент-файл (который видит больше источников), а также для того, чтобы поблагодарить релизера, вам необходимо зарегистрироваться. Если регистрироваться лень - вы можете также попробовать скачать релиз по нашим партнерским ссылкам ниже.

[underverse.su].t57675.torrent
Трекер: Зарегистрирован   [ 30.08.2015 23:23 ]  

Статус: T временная (by makkol at 31.08.2015 10:16)
Поблагодарили: 3 человека
Тип торрента: публичный - доступные источники с открытых трекеров: 
Размер: 1,46 GB (занимает 1/3 DVDR, для записи нужно 1 болванка DVDR/RW)
 
 
Похожие темы
Форум Тема Автор Торрент Отв. Посл. сооб.
Зарубежное кино [DVDRip, Low-Res HDRip, и т.д.] Загнанные / The Hunted (Джош Стюарт / Josh Stewart) [2013 г., триллер, WEB-DLRip] VO (R.A.I.M) 90ytr90
0 | 0

0 | 296

6

26.11.2014 17:03

T Зарубежное кино [HDDVDRip / BDRip / WEB-DL / HDTV 1080/720р] Загнанные лошади / Broken Horses (Видху Винод Чопра) [2015 г., триллер, драма, криминал, детектив, WEB-DL 720p] MVO (Rus) + Original + MVO (Ukr) makkol
4 | 0

0 | 436

5

30.08.2015 23:38

T Зарубежное кино [HDDVDRip / BDRip / WEB-DL / HDTV 1080/720р] Загнанные лошади / Broken Horses (Видху Винод Чопра) [2015 г., триллер, драма, криминал, детектив, WEB-DL 1080p] MVO (Rus) + Original + MVO (Ukr) makkol
1 | 0

0 | 509

13

30.08.2015 23:47


Яндекс.Метрика powered by Sphinx


В Н И М А Н И Е
Сайт не распространяет и не хранит электронные версии произведений, а лишь бесплатно и без коммерческой выгоды (не требуя взамен платы,
SMS и т.д.) предоставляет доступ к создаваемому пользователями каталогу ссылок на торрент-файлы, которые содержат только списки хеш-сумм.
Убедительная просьба с жалобами обращаться напрямую к пользователю, разместившему торрент файл.

Вверх