Loading...
Error

Секс – и охотно / Коктейль ночной любви / Sesso e volentieri (Дино Ризи) [1982 г., комедия, DVDRip] DVO + Original

Статистика раздачи
Размер:  1,64 GB   |    Зарегистрирован:  1 год 3 месяца   |    Скачан:  39 раз

Полного источника не было: 12 дней

Сидов:  0  |  0 KB/s  ]   Личеров:  0  |  0 KB/s  ]

* - сиды/пиры с внешних источников

   
 
Автор Сообщение

makkol Пол:Муж

30-Авг-2015 13:26

Секс – и охотно / Коктейль ночной любви / Sesso e volentieri


Год выпуска: 1982
Жанр: комедия
Производство: Италия [Dean Film, Italian International Film]
Режиссер: Дино Ризи
В ролях: Джонни Дорелли, Лаура Антонелли, Глория Гвида, Джеки Бейсхарт, Джулиана Каландра, Джукас Каселла, Гастоне Пескуччи, Илош Хошаде, Пиппо Сантонастасо, Венантино Венантини
Сюжет фильма:
Фильм - пестрый набор коротких юмористических историй. Под голубым итальянским небом даже самые смелые любовные фантазии могут превратиться в веселую буффонаду!
Влюбленные решили ублажать друг друга, не выключив телевизор, где идет шоу известного мага, a его команды становятся приказом для всех телезрителей...
Ревнивый муж бреет опасной бритвой незадачливого клиента, в то время как его ветреная жена делает тому маникюр и одновременно строит глазки...
Молодая вдова поселяется в квартире, не зная, кто до неё там жил...
Профессиональному жиголо поручают сопровождение дамы, страдающей лёгким недугом...
Знакомство в супермаркете – дама явно не против продолжения…
Богатый эмир, одаряющий изумрудом каждую(ого) из своих любовниц(ков), оказывается жуликом, а изумруды - стеклом...

  • Мировая премьера: 15 октября 1982


Качество видео: DVDRip

Продолжительность: 01:37:42
Формат: AVI
Видео: XviD, 704x416 (1.69:1), 25.000 fps, 1886 kbps
Аудио #1: русский, профессиональный двухголосый закадровый, AC3 2.0, 48 kHz, 192 kbps
Аудио #2: итальянский, оригинал, AC3 2.0, 48 kHz, 192 kbps

Код:

General
Complete name : Sesso.E.Volentieri_1982.DVDRip.avi
Format : AVI
Format/Info : Audio Video Interleave
File size : 1.64 GiB
Duration : 1h 43mn
Overall bit rate : 2 270 Kbps
Movie name : Коктейль ночной любви Sesso E Volentieri (1982.Ru.It).fenixclub.com
Writing application : VirtualDubModRus 1.5.10.2 (build 2540/release) VirtualDubMod build 2540/release
Copyright : DaRcK

Video
ID : 0
Format : MPEG-4 Visual
Format profile : AdvancedSimple@L5
Format settings, BVOP : Yes
Format settings, QPel : No
Format settings, GMC : No warppoints
Format settings, Matrix : Default (MPEG)
Muxing mode : Packed bitstream
Codec ID : XVID
Codec ID/Hint : XviD
Duration : 1h 43mn
Bit rate : 1 887 Kbps
Width : 704 pixels
Height : 416 pixels
Display aspect ratio : 1.692
Frame rate : 25.000 fps
Resolution : 24 bits
Colorimetry : 4:2:0
Scan type : Progressive
Bits/(Pixel*Frame) : 0.258
Stream size : 1.37 GiB (83%)
Writing library : XviD 1.1.2 (UTC 2006-11-01)

Audio #1
ID : 1
Format : AC-3
Format/Info : Audio Coding 3
Codec ID : 2000
Duration : 1h 37mn
Bit rate mode : Constant
Bit rate : 192 Kbps
Channel(s) : 2 channels
Channel positions : L R
Sampling rate : 48.0 KHz
Video delay : 28ms
Stream size : 134 MiB (8%)
Alignment : Split accross interleaves
Interleave, duration : 42 ms (1.06 video frame)
Language : Не определен

Audio #2
ID : 2
Format : AC-3
Format/Info : Audio Coding 3
Codec ID : 2000
Duration : 1h 41mn
Bit rate mode : Constant
Bit rate : 192 Kbps
Channel(s) : 2 channels
Channel positions : L R
Sampling rate : 48.0 KHz
Stream size : 139 MiB (8%)
Alignment : Split accross interleaves
Interleave, duration : 41 ms (1.02 video frame)
Interleave, preload duration : 500 ms
Релиз:

picpicpicpicpic
Для увеличения картинки щелкните мышкой по превью

Этот торрент недоступен для скачивания без регистрации, однако доступен по публичной magnet-ссылке (источники с публичных трекеров). Перед использованием ссылки прочтите, пожалуйста Пользовательское соглашение, а также как можно дольше оставайтесь на раздаче! Для того, чтобы скачать сам торрент-файл (который видит больше источников), а также для того, чтобы поблагодарить релизера, вам необходимо зарегистрироваться. Если регистрироваться лень - вы можете также попробовать скачать релиз по нашим партнерским ссылкам ниже.

[underverse.su].t57668.torrent
Трекер: Зарегистрирован   [ 30.08.2015 13:26 ]  

Статус: проверено (by makkol at 31.08.2015 10:04)
Поблагодарили: 2 человека
Тип торрента: публичный - доступные источники с открытых трекеров: 
Размер: 1,64 GB (занимает 0,38 DVDR, для записи нужно 1 болванка DVDR/RW)
 
 

Яндекс.Метрика powered by Sphinx


В Н И М А Н И Е
Сайт не распространяет и не хранит электронные версии произведений, а лишь бесплатно и без коммерческой выгоды (не требуя взамен платы,
SMS и т.д.) предоставляет доступ к создаваемому пользователями каталогу ссылок на торрент-файлы, которые содержат только списки хеш-сумм.
Убедительная просьба с жалобами обращаться напрямую к пользователю, разместившему торрент файл.

Вверх