Loading...
Error

Безумный Макс: Дорога ярости / Mad Max: Fury Road (Джордж Миллер / George Miller) [2015 г., боевик, фантастика, приключения, BDRip-AVC] Dub

Статистика раздачи
Размер:  2,48 GB   |    Зарегистрирован:  1 год 3 месяца   |    Скачан:  63 раза
Сидов:  1  |  0 KB/s  ]   Личеров:  0  |  0 KB/s  ]

* - сиды/пиры с внешних источников

   
 
Автор Сообщение

Паукан Пол:Муж

30-Авг-2015 11:48

Безумный Макс: Дорога ярости / Mad Max: Fury Road


Год выхода: 2015
Страна: Австралия, США
Жанр: боевик, фантастика, приключения
Продолжительность: 02:00:21
Перевод: Профессиональный (полное дублирование) [Лицензия]
Cубтитры: нет

Режиссер-постановщик: Джордж Миллер / George Miller
В фильме снимались: Том Харди, Шарлиз Терон, Николас Холт, Хью Кияс-Бёрн, Джош Хелман, Нэйтан Джонс, Зои Кравиц, Роузи Хантингтон-Уайтли, Райли Кио, Эбби Ли

Описание: Преследуемый призраками беспокойного прошлого, Макс уверен, что лучший способ выжить — скитаться в одиночестве. Несмотря на это, он присоединяется к бунтарям, бегущим через всю пустыню на боевой фуре, под предводительством военачальника Фуриосы.
Они пытаются сбежать из Цитадели, страдающей от тирании Несмертного Джо, у которого они забрали кое-что очень ценное. Разъярённый военачальник бросает все свои силы на погоню за мятежниками, ступая на дорогу войны — дорогу ярости.

Качество видео: BDRip-AVC
Формат видео: MKV

Видео: 1024x428 (2.39:1), 23.976 fps, AVC, ~2500 kbps avg, 0.236 bit/pixel
Аудио: 48 kHz, AC3 Dolby Digital, 3/2 (L,C,R,l,r) + LFE ch, ~448 kbps - дубляж
Безумный Макс МатвеевMad.Max.Fury.Road.2015_AVC_BDRip_[scarabey.org].mkv
Format : Matroska
Format version : Version 4 / Version 2
File size : 2.43 GiB
Duration : 2h 0mn
Overall bit rate : 2 884 Kbps
Encoded date : UTC 2015-08-15 19:34:49
Writing application : mkvmerge v6.1.0 ('Old Devil') built on Mar 4 2013 09:10:42
Writing library : libebml v1.3.0 + libmatroska v1.4.0

Video
ID : 1
Format : AVC
Format/Info : Advanced Video Codec
Format profile : High@L4.1
Format settings, CABAC : Yes
Format settings, ReFrames : 8 frames
Codec ID : V_MPEG4/ISO/AVC
Duration : 2h 0mn
Bit rate : 2 500 Kbps
Width : 1 024 pixels
Height : 428 pixels
Display aspect ratio : 2.35:1
Original display aspect ratio : 2.35:1
Frame rate mode : Constant
Frame rate : 23.976 fps
Color space : YUV
Chroma subsampling : 4:2:0
Bit depth : 8 bits
Scan type : Progressive
Bits/(Pixel*Frame) : 0.238
Stream size : 2.05 GiB (85%)
Writing library : x264 core 138 r2356 a1d3d17
Encoding settings : cabac=1 / ref=8 / deblock=1:-3:-2 / analyse=0x3:0x113 / me=umh / subme=10 / psy=1 / psy_rd=1.00:0.05 / mixed_ref=1 / me_range=32 / chroma_me=1 / trellis=2 / 8x8dct=1 / cqm=0 / deadzone=21,11 / fast_pskip=0 / chroma_qp_offset=-3 / threads=12 / lookahead_threads=2 / sliced_threads=0 / nr=0 / decimate=0 / interlaced=0 / bluray_compat=0 / constrained_intra=0 / bframes=8 / b_pyramid=2 / b_adapt=2 / b_bias=0 / direct=3 / weightb=1 / open_gop=0 / weightp=2 / keyint=240 / keyint_min=24 / scenecut=40 / intra_refresh=0 / rc_lookahead=40 / rc=2pass / mbtree=1 / bitrate=2500 / ratetol=1.0 / qcomp=0.60 / qpmin=0 / qpmax=69 / qpstep=4 / cplxblur=20.0 / qblur=0.5 / ip_ratio=1.40 / aq=1:1.00
Default : Yes
Forced : No

Audio
ID : 2
Format : AC-3
Format/Info : Audio Coding 3
Mode extension : CM (complete main)
Format settings, Endianness : Big
Codec ID : A_AC3
Duration : 2h 0mn
Bit rate mode : Constant
Bit rate : 448 Kbps
Channel(s) : 6 channels
Channel positions : Front: L C R, Side: L R, LFE
Sampling rate : 48.0 KHz
Bit depth : 16 bits
Compression mode : Lossy
Delay relative to video : 1s 0ms
Stream size : 331 MiB (13%)
Title : Дубляж - Лицензия
Language : Russian
Default : Yes
Forced : No
pic pic pic
Для увеличения картинки щелкните мышкой по превью

Этот торрент недоступен для скачивания без регистрации, однако доступен по публичной magnet-ссылке (источники с публичных трекеров). Перед использованием ссылки прочтите, пожалуйста Пользовательское соглашение, а также как можно дольше оставайтесь на раздаче! Для того, чтобы скачать сам торрент-файл (который видит больше источников), а также для того, чтобы поблагодарить релизера, вам необходимо зарегистрироваться. Если регистрироваться лень - вы можете также попробовать скачать релиз по нашим партнерским ссылкам ниже.

[underverse.su].t57660.torrent
Трекер: Зарегистрирован   [ 30.08.2015 11:48 ]  

Статус: проверено (by Паукан at 30.08.2015 11:48)
Поблагодарили: 2 человека
Тип торрента: публичный - доступные источники с открытых трекеров: 
Размер: 2,48 GB (занимает 0,57 DVDR, для записи нужно 1 болванка DVDR/RW)
 
 
Похожие темы
Форум Тема Автор Торрент Отв. Посл. сооб.
Зарубежное кино [DVDRip, Low-Res HDRip, и т.д.] Безумный Макс 3: Под куполом грома / Mad Max Beyond Thunderdome (Джордж Миллер, Джордж Огилве) [1985 г., боевик, приключения, HDTVRip-AVC] 4xRus + Original garry
20 | 4

0 | 1542

8

11.11.2012 22:46

Зарубежное кино [DVDRip, Low-Res HDRip, и т.д.] Безумный Макс 3: Под куполом грома / Mad Max Beyond Thunderdome (Джордж Миллер / George Miller, Джордж Огилве / George Ogilvie) [1985 г., боевик, приключения, BDRip] Dub + Original 90ytr90
9 | 0

0 | 1377

15

13.09.2013 15:21

Зарубежное кино [DVDRip, Low-Res HDRip, и т.д.] Безумный Макс: Дорога ярости / Mad Max: Fury Road (Джордж Миллер) [2015 г., боевик, фантастика, приключения, WEB-DLRip] AVO makkol
51 | 1

0 | 899

72

23.06.2015 15:35

Зарубежное кино [DVDRip, Low-Res HDRip, и т.д.] Безумный Макс: Дорога ярости / Mad Max: Fury Road (Джордж Миллер / George Miller) [2015 г., боевик, фантастика, приключения, HDRip] Dub Паукан
278 | 1

0 | 882

90

30.08.2015 11:45

Зарубежное кино [DVD / HDDVD / BD / Remux] Безумный Макс 2: Воин дороги / Mad Max 2 (Джордж Миллер / George Miller) [1981, Австралия, фантастика, боевик, триллер, приключения, Blu-ray Disc 1080p] [EUR] uzi2009
15 | 1

0 | 1299

7

01.08.2014 10:42

Зарубежное кино [HDDVDRip / BDRip / WEB-DL / HDTV 1080/720р] Безумный Макс: Трилогия / Mad Max: Trilogy (Джордж Миллер / George Miller) [1979-1985 г., боевик, триллер, приключения, BDRip 720p] 60 fps | Dub luis5
0 | 0

0 | 1335

27

05.09.2014 19:08

Зарубежное кино [HDDVDRip / BDRip / WEB-DL / HDTV 1080/720р] Безумный Макс: Дорога ярости / Mad Max: Fury Road (Джордж Миллер) [2015 г., боевик, фантастика, приключения, WEB-DL 1080p] AVO + Original makkol
70 | 0

0 | 1043

72

23.06.2015 15:48

Зарубежное кино [HDDVDRip / BDRip / WEB-DL / HDTV 1080/720р] Безумный Макс: Дорога ярости / Mad Max: Fury Road (Джордж Миллер) [2015 г., боевик, фантастика, приключения, BDRip 1080p] Dub + Original + Sub (Rus,Eng) Паукан
263 | 16

0 | 1011

79

30.08.2015 11:34

Зарубежное кино [HDDVDRip / BDRip / WEB-DL / HDTV 1080/720р] Безумный Макс: Дорога ярости / Mad Max: Fury Road (Джордж Миллер / George Miller) [2015 г., боевик, фантастика, приключения, BDRip 720p] Dub + Original + Sub (Rus,Eng) Паукан
67 | 0

0 | 730

23

30.08.2015 11:39

Короткометражные мультфильмы Безумный Мадагаскар / Madly Madagascar (Дэвид Сорен) [2013 г., мультфильм, короткометражка, DVDRip] DVO + Original Паукан
15 | 1

1 | 1641

61

04.02.2013 09:56


Яндекс.Метрика powered by Sphinx


В Н И М А Н И Е
Сайт не распространяет и не хранит электронные версии произведений, а лишь бесплатно и без коммерческой выгоды (не требуя взамен платы,
SMS и т.д.) предоставляет доступ к создаваемому пользователями каталогу ссылок на торрент-файлы, которые содержат только списки хеш-сумм.
Убедительная просьба с жалобами обращаться напрямую к пользователю, разместившему торрент файл.

Вверх