Loading...
Error

Левша / Southpaw (Антуан Фукуа) [2015 г., драма, спорт, боевик, триллер, WEB-DLRip] Dub (Line)

Статистика раздачи
Размер:  1,45 GB   |    Зарегистрирован:  1 год 3 месяца   |    Скачан:  53 раза

Полного источника не было: 9 часов

Сидов:  0  |  0 KB/s  ]   Личеров:  0  |  0 KB/s  ]

* - сиды/пиры с внешних источников

   
 
Автор Сообщение

makkol Пол:Муж

30-Авг-2015 11:07

Левша / Southpaw


Год выпуска: 2015
Жанр: драма, спорт, боевик, триллер
Производство: США [Escape Artists, Fuqua Films, Riche Productions]
Режиссер: Антуан Фукуа
В ролях: Джейк Джилленхол, Рэйчел МакАдамс, Форест Уитакер, Уна Лоуренс, Фифти Сент, Скайлан Брукс, Наоми Харрис, Виктор Ортис, Бо Напп, Мигель Гомес
Сюжет фильма:
У боксера Билли Хоупа все было прекрасно: звание чемпиона, красавица-жена и любимая дочка. Но фортуна отворачивается от него: при трагических обстоятельствах погибает любимая жена, дисквалификация на ринге, нулевые доходы, суд лишает его родительских прав… Хоуп должен отстоять звание чемпиона и вернуть дочь. Есть ли у Хоупа шансы на победу? Все решит его знаменитый хук левой…

  • Мировая премьера: 15 июня 2015
  • Российская премьера: 30 июля 2015


Качество видео: WEB-DLRip

Продолжительность: 02:03:46
Формат: AVI
Видео: XviD, 720x304 (2.35:1), 23.976 fps, 1545 kbps
Аудио: русский, дублированный (чистый звук), AC3 2.0, 48 kHz, 128 kbps

Код:

Общее
Полное имя                               : Levsha.2015.D.WEB-DLRip.avi
Формат                                   : AVI
Формат/Информация                        : Audio Video Interleave
Размер файла                             : 1,45 Гбайт
Продолжительность                        : 2 ч. 3 м.
Общий поток                              : 1682 Кбит/сек
Режиссёр                                 : Carl Gaus
Программа кодирования                    : VirtualDubMod 1.5.10.3 | www.virtualdub-fr.org || (build 2550/release)

Видео
Идентификатор                            : 0
Формат                                   : MPEG-4 Visual
Профиль формата                          : Advanced Simple@L5
Параметр BVOP формата                    : 2
Параметр QPel формата                    : Нет
Параметр GMC формата                     : Без точки перехода
Параметр матрицы формата                 : Default (MPEG)
Идентификатор кодека                     : XVID
Идентификатор кодека/Подсказка           : XviD
Продолжительность                        : 2 ч. 3 м.
Битрейт                                  : 1545 Кбит/сек
Ширина                                   : 720 пикселей
Высота                                   : 304 пикселя
Соотношение сторон                       : 2,35:1
Частота кадров                           : 23,976 кадра/сек
Цветовое пространство                    : YUV
Субдискретизация насыщенности            : 4:2:0
Битовая глубина                          : 8 бит
Тип развёртки                            : Прогрессивная
Метод сжатия                             : С потерями
Бит/(Пиксели*Кадры)                      : 0.294
Размер потока                            : 1,34 Гбайт (92%)
Библиотека кодирования                   : XviD 1.2.1 (UTC 2008-12-04)

Аудио
Идентификатор                            : 1
Формат                                   : AC-3
Формат/Информация                        : Audio Coding 3
Расширение режима                        : CM (complete main)
Параметр Endianness формата              : Big
Идентификатор кодека                     : 2000
Продолжительность                        : 2 ч. 3 м.
Вид битрейта                             : Постоянный
Битрейт                                  : 128 Кбит/сек
Каналы                                   : 2 канала
Расположение каналов                     : Front: L R
Частота                                  : 48,0 КГц
Метод сжатия                             : С потерями
Размер потока                            : 113 Мбайт (8%)
Выравнивание                             : Разделение по промежуткам
Продолжительность промежутка             : 42  мс. (1,00 видеокадр)
Время предзагрузки промежутка            : 500  мс.
Релиз группы:

picpicpicpicpic
Для увеличения картинки щелкните мышкой по превью

Этот торрент недоступен для скачивания без регистрации, однако доступен по публичной magnet-ссылке (источники с публичных трекеров). Перед использованием ссылки прочтите, пожалуйста Пользовательское соглашение, а также как можно дольше оставайтесь на раздаче! Для того, чтобы скачать сам торрент-файл (который видит больше источников), а также для того, чтобы поблагодарить релизера, вам необходимо зарегистрироваться. Если регистрироваться лень - вы можете также попробовать скачать релиз по нашим партнерским ссылкам ниже.

[underverse.su].t57651.torrent
Трекер: Зарегистрирован   [ 30.08.2015 11:07 ]  

Статус: T временная (by makkol at 30.08.2015 11:19)
Поблагодарили: 1 человек
Тип торрента: публичный - доступные источники с открытых трекеров: 
Размер: 1,45 GB (занимает 1/3 DVDR, для записи нужно 1 болванка DVDR/RW)
 
 
Похожие темы
Форум Тема Автор Торрент Отв. Посл. сооб.
T Зарубежное кино [DVDRip, Low-Res HDRip, и т.д.] Левша / Southpaw (Антуан Фукуа) [2015 г., драма, спорт, боевик, триллер, WEB-DLRip] Dub (звук с TS) makkol
250 | 6

0 | 2513

38

28.08.2015 23:39

T Зарубежное кино [DVDRip, Low-Res HDRip, и т.д.] Левша / Southpaw (Антуан Фукуа ) [2015 г., драма, спорт, боевик, триллер, WEB-DLRip] Dub makkol
412 | 2

0 | 7231

55

01.09.2015 13:07

T Зарубежное кино [HDDVDRip / BDRip / WEB-DL / HDTV 1080/720р] Левша / Southpaw (Антуан Фукуа) [2015 г., Драма, спорт, боевик, триллер, WEB-DL 720p] Dub (чистый звук) + Original romeoexpert
17 | 0

0 | 5399

41

30.08.2015 13:24

T Зарубежное кино [HDDVDRip / BDRip / WEB-DL / HDTV 1080/720р] Левша / Southpaw (Антуан Фукуа ) [2015 г., драма, спорт, боевик, триллер, WEB-DL 720p] Dub makkol
33 | 0

0 | 790

17

01.09.2015 13:21

T Зарубежное кино [HDDVDRip / BDRip / WEB-DL / HDTV 1080/720р] Левша / Southpaw (Антуан Фукуа ) [2015 г., драма, спорт, боевик, триллер, WEB-DL 1080p] Dub makkol
81 | 1

0 | 679

49

01.09.2015 13:33


Яндекс.Метрика powered by Sphinx


В Н И М А Н И Е
Сайт не распространяет и не хранит электронные версии произведений, а лишь бесплатно и без коммерческой выгоды (не требуя взамен платы,
SMS и т.д.) предоставляет доступ к создаваемому пользователями каталогу ссылок на торрент-файлы, которые содержат только списки хеш-сумм.
Убедительная просьба с жалобами обращаться напрямую к пользователю, разместившему торрент файл.

Вверх