Loading...
Error

Идеальный голос 2 / Pitch Perfect 2 (Элизабет Бэнкс / Elizabeth Banks) [2015 г., комедия, музыка, BDRip] Dub HQ Underverse

Статистика раздачи
Размер:  2,18 GB   |    Зарегистрирован:  1 год 3 месяца   |    Скачан:  6 раз

Полного источника не было: 8 часов

Сидов:  0  |  0 KB/s  ]   Личеров:  0  |  0 KB/s  ]

* - сиды/пиры с внешних источников

   
 
Автор Сообщение

HQ Underverse 

29-Авг-2015 20:55

Идеальный голос 2 / Pitch Perfect 2


Год выпуска: 2015
Жанр: комедия, музыка
Страна: США
Режиссер: Элизабет Бэнкс / Elizabeth Banks
В ролях: Анна Кендрик, Ребел Уилсон, Хейли Стайнфелд, Бриттани Сноу, Скайлар Эстин, Адам Дивайн, Кэти Сагал, Анна Кэмп, Бен Платт, Алексис Нэп
Сюжет фильма:
Самые крутые девчонки возвращаются! Теперь у них все по-взрослому: ремиксы — моднее, каблуки — выше, юбки — короче. Но идеальный голос всегда на месте.

  • Мировая премьера: 20 апреля 2015
  • Российская премьера: 14 мая 2015

/
Качество видео: BDRip Pitch.Perfect.2.2015.BluRay.1080p.AVC.DTS-HD.MA5.1-MTeam

Продолжительность: 01:54:46
Формат: avi
Видео: XviD, 720x384, 2257 kbps
Аудио #1: русский, дублированный [лицензия], AC3 5.1, 448 kbps
Аудио #2: английский, оригинал, AC3 5.1, 448 kbps (отдельным файлом)
Субтитры #1: внешние, SRT, русский Full
Субтитры #2: внешние, SRT, русский Forced
Субтитры #3: внешние, SRT, английский

Семпл: http://multi-up.com/1064373

Релиз группы:

Код:

General
Complete name                    : D:\Video\Movies\Releases\Pitch.Perfect.2.2015.BDRip.XviD.AC3.Rus.D.HQ.Underverse.avi
Format                           : AVI
Format/Info                      : Audio Video Interleave
Format profile                   : OpenDML
File size                        : 2.18 GiB
Duration                         : 1h 54mn
Overall bit rate                 : 2 717 Kbps
Writing application              : VirtualDubMod 1.5.10.3 | www.virtualdub-fr.org || (build 2550/release)
Writing library                  : VirtualDubMod build 2550/release

Video
ID                               : 0
Format                           : MPEG-4 Visual
Format profile                   : Streaming Video@L1
Format settings, BVOP            : Yes
Format settings, QPel            : No
Format settings, GMC             : No warppoints
Format settings, Matrix          : Custom
Codec ID                         : XVID
Codec ID/Hint                    : XviD
Duration                         : 1h 54mn
Bit rate                         : 2 257 Kbps
Width                            : 720 pixels
Height                           : 384 pixels
Display aspect ratio             : 1.875
Frame rate                       : 23.976 fps
Resolution                       : 24 bits
Colorimetry                      : 4:2:0
Scan type                        : Progressive
Bits/(Pixel*Frame)               : 0.340
Stream size                      : 1.81 GiB (83%)
Writing library                  : XviD 66

Audio
ID                               : 1
Format                           : AC-3
Format/Info                      : Audio Coding 3
Codec ID                         : 2000
Duration                         : 1h 54mn
Bit rate mode                    : Constant
Bit rate                         : 448 Kbps
Channel(s)                       : 6 channels
Channel positions                : Front: L C R, Surround: L R, LFE
Sampling rate                    : 48.0 KHz
Stream size                      : 368 MiB (16%)
Alignment                        : Split accross interleaves
Interleave, duration             : 42 ms (1.00 video frame)
Interleave, preload duration     : 500 ms
Title                            : Russian Dub

General
Complete name                    : D:\Video\Movies\Releases\Pitch.Perfect.2.2015.BDRip.XviD.AC3.Rus.D.HQ.Underverse.Eng.ac3
Format                           : AC-3
Format/Info                      : Audio Coding 3
File size                        : 368 MiB
Duration                         : 1h 54mn
Overall bit rate                 : 448 Kbps

Audio
Format                           : AC-3
Format/Info                      : Audio Coding 3
Duration                         : 1h 54mn
Bit rate mode                    : Constant
Bit rate                         : 448 Kbps
Channel(s)                       : 6 channels
Channel positions                : Front: L C R, Surround: L R, LFE
Sampling rate                    : 48.0 KHz
Stream size                      : 368 MiB (100%)

picpicpic
Для увеличения картинки щелкните мышкой по превью

Этот торрент недоступен для скачивания без регистрации, однако доступен по публичной magnet-ссылке (источники с публичных трекеров). Перед использованием ссылки прочтите, пожалуйста Пользовательское соглашение, а также как можно дольше оставайтесь на раздаче! Для того, чтобы скачать сам торрент-файл (который видит больше источников), а также для того, чтобы поблагодарить релизера, вам необходимо зарегистрироваться. Если регистрироваться лень - вы можете также попробовать скачать релиз по нашим партнерским ссылкам ниже.

[underverse.su].t57632.torrent
Трекер: Зарегистрирован   [ 29.08.2015 20:55 ]  

Статус: проверено (by Паукан at 29.08.2015 22:05)
Поблагодарили: 3 человека
Тип торрента: публичный - доступные источники с открытых трекеров: 
Размер: 2,18 GB (занимает 1/2 DVDR, для записи нужно 1 болванка DVDR/RW)
 
 
Похожие темы
Форум Тема Автор Торрент Отв. Посл. сооб.
T Зарубежное кино [DVDRip, Low-Res HDRip, и т.д.] Идеальный мужчина / Un homme ideal (Ян Гозлан / Yann Gozlan) [2015 г., триллер, HDRip] MVO (чистый звук) + Original (Fre) + Sub (Eng) 90ytr90
555 | 16

1 | 373

6

18.09.2016 18:02

Зарубежное кино [DVDRip, Low-Res HDRip, и т.д.] Идеальный студент / The Perfect Student (Майкл Фейфер) [2011 г., триллер, криминал, детектив, DVDRip] MVO + Original RG NewCinema
0 | 0

0 | 1593

30

26.10.2012 08:22

Зарубежное кино [DVDRip, Low-Res HDRip, и т.д.] Идеальный голос / Pitch Perfect (Джейсон Мур) [2012 г., комедия, музыка, HDRip] VO (zamez) 90ytr90
1 | 0

2 | 530

3

22.12.2012 20:15

Зарубежное кино [DVDRip, Low-Res HDRip, и т.д.] Идеальный голос / Pitch Perfect (Джейсон Мур) [2012 г., комедия, музыка, HDRip] VO (zamez) + Original 90ytr90
8 | 1

0 | 688

15

23.12.2012 08:25

Зарубежное кино [DVDRip, Low-Res HDRip, и т.д.] Идеальный голос / Pitch Perfect (Джейсон Мур / Jason Moore) [2012, комедия, музыка, HDRip] VO [zamez] Garnett
41 | 0

0 | 1321

7

08.01.2013 11:48

Зарубежное кино [DVDRip, Low-Res HDRip, и т.д.] Идеальный голос / Pitch Perfect (Джейсон Мур / Jason Moore) [2012 г., мелодрама, комедия, музыка, HDRip] Dub + Original Gaarochi
3 | 0

0 | 1225

19

09.05.2013 19:30

Зарубежное кино [DVDRip, Low-Res HDRip, и т.д.] Идеальный голос / Pitch Perfect ( Джейсон Мур / Jason Moore) [2013 г., мелодрама, комедия, музыка, HDRip] Dub Gaarochi
0 | 0

0 | 914

24

09.05.2013 19:56

Зарубежное кино [DVDRip, Low-Res HDRip, и т.д.] Идеальный конец / A Perfect Ending (Николь Конн) [2012 г., драма, DVDRip] VO Паукан
4 | 0

0 | 925

29

05.02.2014 15:48

Зарубежное кино [DVDRip, Low-Res HDRip, и т.д.] Идеальный шторм / The Perfect Storm (Вольфганг Петерсен) [2000 г., боевик, триллер, драма, приключения, HDRip] Dub ultarasbarcelona
17 | 0

0 | 652

14

25.04.2015 16:41

Зарубежное кино [DVDRip, Low-Res HDRip, и т.д.] Идеальный голос 2 / Pitch Perfect 2 (Элизабет Бэнкс) [2015 г., комедия, музыка, WEBRip] MVO makkol
16 | 0

0 | 570

17

18.07.2015 15:21


Яндекс.Метрика powered by Sphinx


В Н И М А Н И Е
Сайт не распространяет и не хранит электронные версии произведений, а лишь бесплатно и без коммерческой выгоды (не требуя взамен платы,
SMS и т.д.) предоставляет доступ к создаваемому пользователями каталогу ссылок на торрент-файлы, которые содержат только списки хеш-сумм.
Убедительная просьба с жалобами обращаться напрямую к пользователю, разместившему торрент файл.

Вверх