Loading...
Error

Неопознанный звонок / Unknown Caller (Амария Ольсон, Обин Ольсон) [2014 г., триллер, HDRip] VO

Статистика раздачи
Размер:  1,45 GB   |    Зарегистрирован:  1 год 3 месяца   |    Скачан:  19 раз

Полного источника не было: 3 месяца 15 дней

Сидов:  0  |  0 KB/s  ]   Личеров:  0  |  0 KB/s  ]

* - сиды/пиры с внешних источников

   
 
Автор Сообщение

makkol Пол:Муж

29-Авг-2015 14:41

Неопознанный звонок / Unknown Caller


Год выпуска: 2014
Жанр: триллер
Производство: США [Continental Media, DV3 Productions, Forgery]
Режиссер: Амария Ольсон, Обин Ольсон
В ролях: Дэвид Чисам, Ассаф Коэн, Карла ДеФранко, Луиз Гриффитс, Регина Гарбор, Генри Любатти, Виктор МакКэй, Анджоли Ниман
Сюжет фильма:
После того, как кто-то проник в дом, Колин устанавливает высокотехнологичную систему безопасности. Поможет ли она ему или сыграет против него? Психопат закладывает тикающую бомбу под дом, терроризируя семью в течение пары часов, требуя ответа на свой вопрос: ''Кто я?''

  • Мировая премьера: 1 марта 2014


Перевод: Enigma
Озвучивание: Павел Морозов aka PashaUp

Качество видео: HDRip

Продолжительность: 01:43:20
Формат: AVI
Видео: XviD, 720x304 (2.35:1), 23.976 fps, 1555 kbps
Аудио: русский, любительский одноголосый закадровый, AC3 5.1, 48 kHz, 448 kbps

Код:

Общее
Полное имя : Unknown.Caller.2014.PashaUp.HDRip.1400.ExKinoRay.avi
Формат : AVI
Формат/Информация : Audio Video Interleave
Размер файла : 1,45 Гбайт
Продолжительность : 1 ч. 43 м.
Общий поток : 2012 Кбит/сек
Программа кодирования : VirtualDubMod 1.5.10.2 (build 2540/release)
Библиотека кодирования : VirtualDubMod build 2540/release
Правообладатель : ExKinoRay

Видео
Идентификатор : 0
Формат : MPEG-4 Visual
Профиль формата : Advanced Simple@L5
Параметр BVOP формата : 1
Параметр QPel формата : Нет
Параметр GMC формата : Без точки перехода
Параметр матрицы формата : Выборочная
Идентификатор кодека : XVID
Идентификатор кодека/Подсказка : XviD
Продолжительность : 1 ч. 43 м.
Битрейт : 1555 Кбит/сек
Ширина : 720 пикселей
Высота : 304 пикселя
Соотношение сторон : 2,35:1
Частота кадров : 23,976 кадра/сек
Цветовое пространство : YUV
Субдискретизация насыщенности : 4:2:0
Битовая глубина : 8 бит
Тип развёртки : Прогрессивная
Метод сжатия : С потерями
Бит/(Пиксели*Кадры) : 0.296
Размер потока : 1,12 Гбайт (77%)
Библиотека кодирования : XviD 73

Аудио
Идентификатор : 1
Формат : AC-3
Формат/Информация : Audio Coding 3
Расширение режима : CM (complete main)
Параметр Endianness формата : Big
Идентификатор кодека : 2000
Продолжительность : 1 ч. 43 м.
Вид битрейта : Постоянный
Битрейт : 448 Кбит/сек
Каналы : 6 каналов
Расположение каналов : Front: L C R, Side: L R, LFE
Частота : 48,0 КГц
Битовая глубина : 16 бит
Метод сжатия : С потерями
Размер потока : 331 Мбайт (22%)
Выравнивание : Разделение по промежуткам
Продолжительность промежутка : 42 мс. (1,00 видеокадр)
Время предзагрузки промежутка : 500 мс.
Релиз:

picpicpicpicpic
Для увеличения картинки щелкните мышкой по превью

Этот торрент недоступен для скачивания без регистрации, однако доступен по публичной magnet-ссылке (источники с публичных трекеров). Перед использованием ссылки прочтите, пожалуйста Пользовательское соглашение, а также как можно дольше оставайтесь на раздаче! Для того, чтобы скачать сам торрент-файл (который видит больше источников), а также для того, чтобы поблагодарить релизера, вам необходимо зарегистрироваться. Если регистрироваться лень - вы можете также попробовать скачать релиз по нашим партнерским ссылкам ниже.

[underverse.su].t57626.torrent
Трекер: Зарегистрирован   [ 29.08.2015 14:41 ]  

Статус: проверено (by makkol at 30.08.2015 11:14)
Поблагодарили: пока никто не поблагодарил...
Тип торрента: публичный - доступные источники с открытых трекеров: 
Размер: 1,45 GB (занимает 1/3 DVDR, для записи нужно 1 болванка DVDR/RW)
 
 
Похожие темы
Форум Тема Автор Торрент Отв. Посл. сооб.
Зарубежное кино [HDDVDRip / BDRip / WEB-DL / HDTV 1080/720р] Неопознанный звонок / Unknown Caller (Амария Ольсон, Обин Ольсон) [2014 г., триллер, BDRip 1080p] VO + Original + Subs (Eng) makkol
4 | 0

0 | 432

8

29.08.2015 14:56


Яндекс.Метрика powered by Sphinx


В Н И М А Н И Е
Сайт не распространяет и не хранит электронные версии произведений, а лишь бесплатно и без коммерческой выгоды (не требуя взамен платы,
SMS и т.д.) предоставляет доступ к создаваемому пользователями каталогу ссылок на торрент-файлы, которые содержат только списки хеш-сумм.
Убедительная просьба с жалобами обращаться напрямую к пользователю, разместившему торрент файл.

Вверх