Loading...
Error

Веснушка / Имон / Eamon (Маргарет Коркери) [2009 г., мелодрама, чёрная комедия, DVDRip] DVO + Original

Статистика раздачи
Размер:  847 MB   |    Зарегистрирован:  1 год 3 месяца   |    Скачан:  10 раз
Сидов:  1  |  0 KB/s  ]   Личеров:  0  |  0 KB/s  ]

* - сиды/пиры с внешних источников

   
 
Автор Сообщение

makkol Пол:Муж

29-Авг-2015 11:04

Веснушка / Имон / Eamon


Год выпуска: 2009
Жанр: мелодрама, чёрная комедия
Производство: Ирландия [Irish Film Board, Zanita Films]
Режиссер: Маргарет Коркери
В ролях: Роберт Доннелли, Эми Кирван, Даррен Хейли, Дирдри Монахэн, Филлис МакМэйхон, Мэри Мюррэй, Люк Далтон, Кит Багги, Мюирэнн Бёрд, Тим Гэхан
Сюжет фильма:
Семья выезжает за город для проведения выходных дней возле моря. Очень трудно приходится каждому члену этого разрушительного любовного треугольника, одним из которых является Имон - мальчик с проблемами поведения, его эгоистичная мама Грейс, и сексуально озабоченный папа Даниель. Мальчик считает, что и мама, и папа принадлежат только ему, но ни в коем случает друг другу; Грейс не на шутку увлекается пляжным красавцем; мысли Даниеля направлены только на то, как бы остаться со своей женой наедине...

  • Мировая премьера: 5 июля 2009


Качество видео: DVDRip

Продолжительность: 01:22:13
Формат: MKV
Видео: MPEG-4 AVC, 640x352 (16:9), 25.000 fps, 1054 kbps
Аудио #1: русский, профессиональный двухголосый закадровый (студия Акцент), MP3 2.0, 48 kHz, 256 kbps
Аудио #2: английский, оригинал, MP3 2.0, 48 kHz, 128 kbps

Внимание: Фильм не рекомендован для просмотра лицами младше 15 лет!

Код:

Общее
Уникальный идентификатор                 : 190255900665799509448825238304563027316 (0x8F21F4205DA40629838EF2ED58A65D74)
Полное имя                               : Eamon.2009.DVDRip.mkv
Формат                                   : Matroska
Версия формата                           : Version 4 / Version 2
Размер файла                             : 847 Мбайт
Продолжительность                        : 1 ч. 22 м.
Общий поток                              : 1440 Кбит/сек
Дата кодирования                         : UTC 2015-08-28 23:29:18
Программа кодирования                    : mkvmerge v7.9.0 ('Birds') 64bit
Библиотека кодирования                   : libebml v1.3.1 + libmatroska v1.4.2
DURATION                                 : 01:22:13.080000000
NUMBER_OF_FRAMES                         : 205545
NUMBER_OF_BYTES                          : 157858560
_STATISTICS_WRITING_APP                  : mkvmerge v7.9.0 ('Birds') 64bit
_STATISTICS_WRITING_DATE_UTC             : 2015-08-28 23:29:18
_STATISTICS_TAGS                         : BPS DURATION NUMBER_OF_FRAMES NUMBER_OF_BYTES

Видео
Идентификатор                            : 1
Формат                                   : AVC
Формат/Информация                        : Advanced Video Codec
Профиль формата                          : Main@L5.1
Параметр CABAC формата                   : Да
Параметр ReFrames формата                : 2 кадра
Идентификатор кодека                     : V_MPEG4/ISO/AVC
Продолжительность                        : 1 ч. 22 м.
Битрейт                                  : 1054 Кбит/сек
Ширина                                   : 640 пикселей
Высота                                   : 352 пикселя
Соотношение сторон                       : 16:9
Режим частоты кадров                     : Постоянный
Частота кадров                           : 25,000 кадров/сек
Цветовое пространство                    : YUV
Субдискретизация насыщенности            : 4:2:0
Битовая глубина                          : 8 бит
Тип развёртки                            : Прогрессивная
Бит/(Пиксели*Кадры)                      : 0.187
Размер потока                            : 604 Мбайт (71%)
Библиотека кодирования                   : x264 core 58 svn-736bm
Настройки программы                      : cabac=1 / ref=1 / deblock=1:0:0 / analyse=0x1:0x131 / me=hex / subme=5 / brdo=0 / mixed_ref=0 / me_range=16 / chroma_me=1 / trellis=1 / 8x8dct=0 / cqm=0 / deadzone=21,11 / chroma_qp_offset=0 / threads=2 / nr=0 / decimate=1 / mbaff=0 / bframes=2 / b_pyramid=0 / b_adapt=1 / b_bias=0 / direct=1 / wpredb=1 / bime=0 / keyint=250 / keyint_min=25 / scenecut=40(pre) / rc=2pass / bitrate=1054 / ratetol=1.0 / rceq='blurCplx^(1-qComp)' / qcomp=0.60 / qpmin=10 / qpmax=51 / qpstep=4 / cplxblur=20.0 / qblur=0.5 / ip_ratio=1.40 / pb_ratio=1.30
Default                                  : Да
Forced                                   : Нет

Аудио #1
Идентификатор                            : 2
Формат                                   : MPEG Audio
Версия формата                           : Version 1
Профиль формата                          : Layer 3
Идентификатор кодека                     : A_MPEG/L3
Идентификатор кодека/Подсказка           : MP3
Продолжительность                        : 1 ч. 22 м.
Вид битрейта                             : Постоянный
Битрейт                                  : 256 Кбит/сек
Каналы                                   : 2 канала
Частота                                  : 48,0 КГц
Метод сжатия                             : С потерями
Размер потока                            : 151 Мбайт (18%)
Язык                                     : Russian
Default                                  : Да
Forced                                   : Нет

Аудио #2
Идентификатор                            : 3
Формат                                   : MPEG Audio
Версия формата                           : Version 1
Профиль формата                          : Layer 3
Режим                                    : Joint stereo
Расширение режима                        : MS Stereo
Идентификатор кодека                     : A_MPEG/L3
Идентификатор кодека/Подсказка           : MP3
Продолжительность                        : 1 ч. 22 м.
Вид битрейта                             : Постоянный
Битрейт                                  : 128 Кбит/сек
Каналы                                   : 2 канала
Частота                                  : 48,0 КГц
Метод сжатия                             : С потерями
Размер потока                            : 75,3 Мбайт (9%)
Библиотека кодирования                   : LAME3.97
Настройки программы                      : -m j -V 4 -q 2 -lowpass 17 -b 128
Язык                                     : English
Default                                  : Нет
Forced                                   : Нет
picpicpicpicpic
Для увеличения картинки щелкните мышкой по превью

Этот торрент недоступен для скачивания без регистрации, однако доступен по публичной magnet-ссылке (источники с публичных трекеров). Перед использованием ссылки прочтите, пожалуйста Пользовательское соглашение, а также как можно дольше оставайтесь на раздаче! Для того, чтобы скачать сам торрент-файл (который видит больше источников), а также для того, чтобы поблагодарить релизера, вам необходимо зарегистрироваться. Если регистрироваться лень - вы можете также попробовать скачать релиз по нашим партнерским ссылкам ниже.

[underverse.su].t57621.torrent
Трекер: Зарегистрирован   [ 29.08.2015 11:04 ]  

Статус: проверено (by makkol at 29.08.2015 11:14)
Поблагодарили: 1 человек
Тип торрента: публичный - доступные источники с открытых трекеров: 
Размер: 847 MB (занимает 0,19 DVDR, для записи нужно 1 болванка DVDR/RW)
 
 
Похожие темы
Форум Тема Автор Торрент Отв. Посл. сооб.
Зарубежное кино [DVDRip, Low-Res HDRip, и т.д.] Веснушка / Имон / Eamon (Маргарет Коркери) [2009 г., мелодрама, чёрная комедия, IPTVRip] DVO makkol
1 | 0

0 | 394

18

27.08.2015 22:52


Яндекс.Метрика powered by Sphinx


В Н И М А Н И Е
Сайт не распространяет и не хранит электронные версии произведений, а лишь бесплатно и без коммерческой выгоды (не требуя взамен платы,
SMS и т.д.) предоставляет доступ к создаваемому пользователями каталогу ссылок на торрент-файлы, которые содержат только списки хеш-сумм.
Убедительная просьба с жалобами обращаться напрямую к пользователю, разместившему торрент файл.

Вверх